Поиск

2021 Nicolas Repac - Rhapsodic {No Format NØF48} [24-44.1]

2021 Nicolas Repac - Rhapsodic {No Format NØF48} [24-44.1]
Дата издания диска:
15 января 2021
Носитель:
WEB
Формат:
PCM
Тип рипа:
tracks+.cue
Контейнер:
APE (*.ape)
Количество каналов:
2.0
Разрядность/ЧД:
24/44,1
Битрейт аудио:
lossless
Время звучания:
00:45:35
Наличие сканов:
web
Страна-производитель диска (релиза):
France
Релизёр (источник):
M0p94ok
Лог проверки качества
foobar2000 1.6.2 / Dynamic Range Meter 1.1.1
log date: 2021-02-02 18:55:54

--------------------------------------------------------------------------------
Analyzed: Nicolas Repac / Rhapsodic
--------------------------------------------------------------------------------

DR         Peak         RMS     Duration Track
--------------------------------------------------------------------------------
DR8       -0.01 dB    -9.48 dB      2:58 01-Kama Twist Dada
DR8       -0.01 dB   -10.17 dB      3:29 02-Go Future
DR7       -0.01 dB   -10.11 dB      2:22 03-Dancestral
DR6       -0.01 dB    -8.82 dB      3:34 04-Electrosapiens
DR8       -0.01 dB   -10.35 dB      2:50 05-Austral Rêverie
DR9       -0.01 dB   -11.51 dB      1:59 06-Space Mobylette
DR7       -0.01 dB   -11.12 dB      6:28 07-Ethnicolor
DR11      -0.02 dB   -13.22 dB      3:04 08-In the Land of Your Soul
DR9       -0.01 dB   -11.27 dB      1:15 09-Echo Système
DR8       -0.01 dB    -9.16 dB      4:09 10-Mars ma terre
DR11      -0.01 dB   -14.38 dB      5:17 11-Sama
DR8       -0.01 dB   -10.84 dB      3:10 12-Carambolage
DR11      -0.02 dB   -13.99 dB      5:10 13-Nomad Rhapsody
--------------------------------------------------------------------------------

Number of tracks:  13
Official DR value: DR9

Samplerate:        44100 Hz
Channels:          2
Bits per sample:   24
Bitrate:           1420 kbps
Codec:             FLAC
================================================================================
No seeders - write personal message to M0p94ok. Any questions - support@pro-jazz.com.
Нет сидеров - пишите в личку M0p94ok. Есть вопросы - support@pro-jazz.com
20:33
199
Нет комментариев. Ваш будет первым!