Поиск

2019 Rita Payes - In New York {Venus VHGD-352} [DSD64]

2019 Rita Payes - In New York {Venus VHGD-352} [DSD64]
Стили:
Дата записи диска:
13 апреля - 14 апреля 2019
Место записи:
Tedesco Studios, Paramus, NJ, USA
Издатель (лейбл):
Номер по каталогу:
VHGD-352
Носитель:
SACD
Формат:
DST
Тип рипа:
image+.cue
Контейнер:
FLAC (*.flac)
Количество каналов:
2.0
Разрядность/ЧД:
64 (2,8 MHz/1 Bit)
Битрейт аудио:
lossless
Время звучания:
00:59:22
Наличие сканов:
буклет pdf
Релизёр (источник):
M0p94ok
Доп. инфо:

К вокалистке и тромбонистке Рите Пэйс присоединились Джерри Уэлдон, Массмио Фарао, Никола Барбон, Луи Хейс и Джимми Кобб для этого сета, который включает «Someone To Watch Over Me», «Bewitched», «Сентябрьскую песню» и «Theme For Basie".

Рита Пайес родилась в 1999 году в Вилассар-де-Мар (Барселона). В детстве она начала учиться в Музыкальной школе в Премия-де-Мар, сначала играя на фортепиано. В возрасте 8 лет в Школе современной музыки в Бадалоне она добавила в свой арсенал тромбон. Она играла и пела в нескольких биг-бэндах, джаз-бэндах и комбо, включая EMM в Premia de Mar, EMM Badalona, биг-бэнд под руководством Эрриуса, Пере Пайе, Хосепа Травера, Карлеса Весино и Джоан Морагес. В июле 2013 года она присоединилась к джаз-бэнду Sant Andreu под руководством Жоана Чаморро.

Лог проверки качества
foobar2000 1.6.2 / Замер динамического диапазона (DR) 1.1.1
Дата отчёта:  2020-12-11 18:01:05

--------------------------------------------------------------------------------
Анализ:   Rita Payés / IN NEW YORK
--------------------------------------------------------------------------------

DR         Пики         RMS           Продолжительность трека
--------------------------------------------------------------------------------
DR8       -2.81 дБ   -13.11 дБ      5:43 01-WHAT CAN I SAY DEAR AFTER I SAY I'M SORRY
DR8       -2.73 дБ   -14.19 дБ      5:28 02-SOMEONE TO WATCH OVER ME
DR9       -2.85 дБ   -14.87 дБ      6:33 03-BEWITCHED
DR7       -2.56 дБ   -13.47 дБ      5:22 04-LIGIA
DR8       -2.72 дБ   -14.05 дБ      7:09 05-HYMN TO FREEDOM
DR9       -2.88 дБ   -15.62 дБ      5:13 06-SEPTEMBER SONG
DR7       -2.51 дБ   -11.11 дБ      5:45 07-GYPSY JINGLE JANGLE
DR9       -2.68 дБ   -14.09 дБ      6:30 08-KELLY BLUE
DR8       -2.82 дБ   -12.52 дБ      4:18 09-TRISTEZA
DR9       -2.75 дБ   -13.29 дБ      7:20 10-THEME FOR BASIE
--------------------------------------------------------------------------------

Количество треков: 10
Реальные значения DR: DR8

Частота:  2822400 Гц / Частота PCM: 352800 Гц
Каналов:  2
Разрядность:   1
Битрейт:  5645 кбит/с
Кодек:   DSD64
================================================================================
No seeders - write personal message to M0p94ok. Any questions - support@pro-jazz.com.
Нет сидеров - пишите в личку M0p94ok. Есть вопросы - support@pro-jazz.com
14:19
169
Нет комментариев. Ваш будет первым!