Вы используете незарегистрированную версию компонента "Вкладки"!

Поиск

2019 Joseph Siankope - The Ambassador Plays New Orleans Greats {Severalia} [24-48]

2019 Joseph Siankope - The Ambassador Plays New Orleans Greats {Severalia} [24-48]
Дата издания диска:
26 апреля 2019
Носитель:
WEB
Формат:
PCM
Тип рипа:
tracks+.cue
Контейнер:
APE (*.ape)
Количество каналов:
2.0
Разрядность/ЧД:
24/48
Битрейт аудио:
lossless
Время звучания:
00:49:13
Наличие сканов:
web
Страна-производитель диска (релиза):
USA
Релизёр (источник):
M0p94ok
Лог проверки качества
foobar2000 1.6.2 / Dynamic Range Meter 1.1.1
log date: 2021-02-02 00:19:59

--------------------------------------------------------------------------------
Analyzed: Joseph Siankope / The Ambassador Plays New Orleans Greats
--------------------------------------------------------------------------------

DR         Peak         RMS     Duration Track
--------------------------------------------------------------------------------
DR14      -3.18 dB   -18.98 dB      3:26 01-Shake That Thing
DR12      -5.18 dB   -21.79 dB      3:34 02-Let Your Light Shine on Me
DR12      -4.44 dB   -18.47 dB      6:30 03-Bourbon Street Parade
DR12      -6.33 dB   -21.24 dB      1:59 04-Down by the Riverside 1
DR13      -2.50 dB   -19.24 dB      5:24 05-Down by the Riverside 2
DR12      -7.56 dB   -22.47 dB      4:53 06-The Entertainer
DR13      -6.46 dB   -21.27 dB      2:54 07-Canal Street Blues
DR13      -4.43 dB   -20.13 dB      2:28 08-King Porter Stomp
DR10      -9.15 dB   -20.57 dB      5:09 09-Put on Your Old Grey Bonnet
DR14      -4.70 dB   -20.79 dB      8:55 10-Just a Closer Walk with Thee
DR14      -2.00 dB   -20.48 dB      4:07 11-What a Wonderful World
--------------------------------------------------------------------------------

Number of tracks:  11
Official DR value: DR13

Samplerate:        48000 Hz
Channels:          2
Bits per sample:   24
Bitrate:           1368 kbps
Codec:             FLAC
================================================================================
Any questions - support@pro-jazz.com. Есть вопросы - support@pro-jazz.com
01:49
178
Нет комментариев. Ваш будет первым!