Поиск

2020 Øyvind Hegg-Lunde, Stephan Meidell – Voice & Strings & Timpani {Hubro} [24-48]

2020 Øyvind Hegg-Lunde, Stephan Meidell – Voice & Strings & Timpani {Hubro} [24-48]
Дата издания диска:
6 ноября 2020
Издатель (лейбл):
Битрейт аудио:
lossless

Треклист:

1. Cashmere  05:15
2. Escargot  05:57
3. Swarming Strings Made Out Of Light  04:30
4. FM4E  05:04
5. Laxevaag  03:54
6. Community  01:50
7. Talk Tick Talk  04:45
8. Introducing  03:06
9. Sons Français  04:05

Состав:
  • Mari Kvien Brunvoll: vocal, electronics
  • Eva Pfitzenmaier: vocal, keys, recorder
  • Stein Urheim: guitar, electronics, langeleik
  • Stephan Meidell: guitar, electronics, synth
  • Kim Åge Furuhaug: drums, percussion
  • Øyvind Hegg-Lunde: drums, percussion, synth
Доп. инфо:

Формат записи/Источник записи: [TR24][OF]
Наличие водяных знаков: Нет
Год издания: 2020
Издатель (лейбл): Hubro
Продолжительность: 00:38:31
Наличие сканов в содержимом раздачи: Только обложка
Источник: prostudiomasters
Контейнер: FLAC (*.flac)
Тип рипа: tracks
Разрядность: 24/48
Формат: PCM
Количество каналов: 2.0

Лог проверки качества
foobar2000 1.4.1 / Dynamic Range Meter 1.1.1
log date: 2020-12-10 14:37:16

––––––––––––––––––––––––––––––––––––––––
Analyzed: Stephan Meidell, Strings & Timpani, Øyvind Hegg-Lunde feat. Eva Pfitzenmaier, Kim Åge Furuhaug, Mari Kvien Brunvoll & Stein Urheim / Voice & Strings & Timpani
––––––––––––––––––––––––––––––––––––––––

DR Peak RMS Duration Track
––––––––––––––––––––––––––––––––––––––––
DR9 -0.50 dB -12.42 dB 5:16 01-Cashmere
DR7 -0.50 dB -10.81 dB 5:58 02-Escargot
DR7 -0.50 dB -10.55 dB 4:30 03-Swarming Strings Made out of Light
DR9 -0.50 dB -12.88 dB 5:05 04-FM4E
DR9 -0.50 dB -10.68 dB 3:55 05-Laxevaag
DR8 -0.50 dB -14.90 dB 1:51 06-Community
DR8 -0.50 dB -10.90 dB 4:45 07-Talk Tick Talk
DR9 -0.50 dB -12.71 dB 3:06 08-Introducing
DR8 -0.50 dB -11.77 dB 4:06 09-Sons Français
––––––––––––––––––––––––––––––––––––––––

Number of tracks: 9
Official DR value: DR8

Samplerate: 48000 Hz
Channels: 2
Bits per sample: 24
Bitrate: 1514 kbps
Codec: FLAC
================================================================================
По всем вопросам пишите личное сообщение пользователю M0p94ok.
22:26
472
Нет комментариев. Ваш будет первым!