Поиск

2017 Morten Schantz - Godspeed {Edition EDN1081} [24-88.2]

2017 Morten Schantz - Godspeed {Edition EDN1081} [24-88.2]
Стили:
Дата записи диска:
3 июня и 21 сентября - 23 сентября 2015
Место записи:
Frostbox Studios, Copenhagen, Denmark
Дата издания диска:
27 января 2017
Издатель (лейбл):
Номер по каталогу:
EDN1081
Носитель:
WEB
Формат:
PCM
Тип рипа:
tracks+.cue
Контейнер:
APE (*.ape)
Количество каналов:
2.0
Разрядность/ЧД:
24/88,2
Битрейт аудио:
lossless
Время звучания:
00:59:04
Наличие сканов:
web
Страна-производитель диска (релиза):
Denmark
Релизёр (источник):
M0p94ok
Лог проверки качества
foobar2000 1.3.16 / Dynamic Range Meter 1.1.1
log date: 2019-04-24 20:19:31

--------------------------------------------------------------------------------
Analyzed: Morten Schantz / Godspeed
--------------------------------------------------------------------------------

DR         Peak         RMS     Duration Track
--------------------------------------------------------------------------------
DR9       -0.64 dB   -13.75 dB      1:08 01-Silence in the Tempest (Part I)
DR7        0.00 dB    -8.95 dB      7:11 02-Godspeed
DR5        0.00 dB    -6.39 dB      3:04 03-Escape Velocity
DR6        0.00 dB    -8.76 dB      7:44 04-Growing Sense
DR6        0.00 dB    -7.71 dB      7:51 05-Martial Arts
DR7       -0.07 dB   -10.31 dB      2:55 06-Airglow
DR6        0.00 dB    -7.70 dB      6:49 07-Ceasefire
DR7       -0.09 dB   -11.45 dB      3:28 08-Cathedral
DR7        0.00 dB    -7.71 dB      7:37 09-Drill
DR7        0.00 dB    -8.53 dB      1:15 10-Nuclear Fusion
DR5        0.00 dB    -7.27 dB      6:33 11-Dark Matter
DR8       -0.08 dB   -11.80 dB      3:30 12-Silence in the Tempest (Part II)
--------------------------------------------------------------------------------

Number of tracks:  12
Official DR value: DR7

Samplerate:        88200 Hz
Channels:          2
Bits per sample:   24
Bitrate:           2639 kbps
Codec:             FLAC
================================================================================
No seeders - write personal message to M0p94ok. Any questions - support@pro-jazz.com.
Нет сидеров - пишите в личку M0p94ok. Есть вопросы - support@pro-jazz.com
22:30
180
Нет комментариев. Ваш будет первым!