Поиск

2020 Sverre Gjørvad – Elegy of Skies {Losen} [24-48]

2020 Sverre Gjørvad – Elegy of Skies {Losen} [24-48]
Стили:
Дата издания диска:
16 октября 2020
Битрейт аудио:
lossless

Треклист:

1. An Amorphic Balloon  04:31
2. Elegy of Skies  04:36
3. Rein  05:36
4. Fire  03:21
5. The Wife Waltzes Too  04:33
6. Islands and Mountains  04:46
7. Strive  05:25
8. Mercy feat. Joakim Milder  04:16
9. Elegy of Skies 2 (in memoriam)  02:40

Доп. инфо:

Формат записи/Источник записи: [TR24][OF]
Наличие водяных знаков: Нет
Год издания: 2020
Издатель (лейбл): Losen Records
Продолжительность: 00:39:48
Наличие сканов в содержимом раздачи: Только обложка
Источник: prostudiomasters
Контейнер: FLAC (*.flac)
Тип рипа: tracks
Разрядность: 24/48
Формат: PCM
Количество каналов: 2.0

Лог проверки качества
foobar2000 1.3.16 / Dynamic Range Meter 1.1.1
log date: 2020-10-14 19:03:20

––––––––––––––––––––––––––––––––––––––––
Analyzed: Sverre Gjørvad / Elegy of Skies
––––––––––––––––––––––––––––––––––––––––

DR Peak RMS Duration Track
––––––––––––––––––––––––––––––––––––––––
DR11 -0.26 dB -14.97 dB 4:31 01-An Amorphic Balloon
DR11 -0.26 dB -15.46 dB 4:37 02-Elegy of Skies
DR12 -0.26 dB -15.95 dB 5:37 03-Rein
DR10 -0.26 dB -14.02 dB 3:21 04-Fire
DR12 -0.26 dB -14.72 dB 4:34 05-The Wife Waltzes Too
DR13 -0.26 dB -18.07 dB 4:47 06-Islands and Mountains
DR10 -0.26 dB -13.75 dB 5:25 07-Strive
DR11 -0.26 dB -14.47 dB 4:16 08-Mercy
DR14 -0.26 dB -18.71 dB 2:41 09-Elegy of Skies 2 (in memoriam)
––––––––––––––––––––––––––––––––––––––––

Number of tracks: 9
Official DR value: DR12

Samplerate: 48000 Hz
Channels: 2
Bits per sample: 24
Bitrate: 1486 kbps
Codec: FLAC
===============================================================================
Приватный:
Да (DHT отключён)
Размер:
441.84 Мб (463,299,217 байт) » файлов: 11
Участники:
0 раздают, 1 качают (1 участников всего)
Внешние участники:
5 раздают, 2 качают (7 участников всего) [ Обновить ]
No seeders - write personal message to M0p94ok. Any questions - support@pro-jazz.com.
Нет сидеров - пишите в личку M0p94ok. Есть вопросы - support@pro-jazz.com
17:48
119
Нет комментариев. Ваш будет первым!