Вы используете незарегистрированную версию компонента "Вкладки"!

Поиск

2017 Mário Laginha - Setembro {Edition EDN1099} [24-44.1]

2017 Mário Laginha - Setembro {Edition EDN1099} [24-44.1]
Дата записи диска:
1 июля 2014
Место записи:
Casa da Música, Porto, Portugal
Дата издания диска:
6 октября 2017
Издатель (лейбл):
Номер по каталогу:
EDN1099
Носитель:
WEB
Формат:
PCM
Тип рипа:
tracks+.cue
Контейнер:
APE (*.ape)
Количество каналов:
2.0
Разрядность/ЧД:
24/44,1
Битрейт аудио:
lossless
Время звучания:
00:53:12
Наличие сканов:
web
Страна-производитель диска (релиза):
UK
Релизёр (источник):
M0p94ok
Лог проверки качества
foobar2000 1.6.2 / Dynamic Range Meter 1.1.1
log date: 2021-02-01 00:12:51

--------------------------------------------------------------------------------
Analyzed: Mário Laginha / Setembro
--------------------------------------------------------------------------------

DR         Peak         RMS     Duration Track
--------------------------------------------------------------------------------
DR12      -0.59 dB   -17.81 dB      4:56 01-Mãos na Parede
DR13      -0.20 dB   -15.52 dB      5:07 02-Fisicamente
DR14      -0.80 dB   -19.10 dB      5:20 03-O Primeiro Dia
DR12      -0.20 dB   -15.59 dB      6:33 04-Serralves
DR14      -0.08 dB   -18.75 dB      7:04 05-Perto de Alguém
DR10      -0.20 dB   -14.10 dB      8:43 06-Coisas da Terra
DR13      -5.77 dB   -24.59 dB      3:31 07-Hugger Mugger
DR12      -0.20 dB   -14.99 dB      5:49 08-Yada Yada
DR12      -2.81 dB   -21.21 dB      2:45 09-Horn Please
DR14      -0.20 dB   -18.25 dB      3:28 10-Lugar Bem Situado
--------------------------------------------------------------------------------

Number of tracks:  10
Official DR value: DR13

Samplerate:        44100 Hz
Channels:          2
Bits per sample:   24
Bitrate:           1347 kbps
Codec:             FLAC
================================================================================
Any questions - support@pro-jazz.com. Есть вопросы - support@pro-jazz.com
01:28
179
Нет комментариев. Ваш будет первым!