Поиск

2020 Quadro Nuevo - Mare {Fine Music FM260-2} [24-96]

2020 Quadro Nuevo - Mare {Fine Music FM260-2} [24-96]
Стили:
Битрейт аудио:
lossless
Доп. инфо:

Формат записи/Источник записи: [TR24][OF]
Год издания/переиздания диска: 2020
Издатель (лейбл): Fine Music
Продолжительность: 01:17:20
Наличие сканов в содержимом раздачи: Нет

Контейнер: FLAC (*.flac)
Тип рипа: tracks
Разрядность: 24/96
Количество каналов: 2.0

Источник (релизер): Qobuz

Лог проверки качества
foobar2000 1.6.1 / Dynamic Range Meter 1.1.1
log date: 2020-10-30 15:48:13

--------------------------------------------------------------------------------
Analyzed: Quadro Nuevo / Mare
--------------------------------------------------------------------------------

DR         Peak         RMS     Duration Track
--------------------------------------------------------------------------------
DR12      -0.21 dB   -14.38 dB      5:57 01-Sambadi didi
DR12      -0.22 dB   -15.36 dB      5:46 02-Torna a surriento
DR10      -0.22 dB   -11.62 dB      4:18 03-Sun Will Shine Again
DR8       -0.22 dB   -11.57 dB      4:49 04-Yorke's Guitar
DR8       -0.21 dB   -11.51 dB      5:53 05-Saluti di parigi
DR11      -0.22 dB   -13.82 dB      4:04 06-Plage à trois
DR11      -0.21 dB   -13.82 dB      6:17 07-Ragazzo samba
DR8       -0.21 dB   -10.66 dB      4:40 08-Beach Anno '75
DR9       -0.22 dB   -13.03 dB      6:04 09-Ikarus' Dream
DR8       -0.21 dB   -10.92 dB      6:22 10-Café Groppi
DR12      -0.22 dB   -13.94 dB      4:44 11-Stay Away and Play
DR10      -0.22 dB   -12.48 dB      3:34 12-Michèle's valse
DR9       -0.21 dB   -12.88 dB      5:03 13-Cinema paradiso
DR9       -0.22 dB   -11.04 dB      5:47 14-Bora furiosa
DR8       -0.22 dB   -10.11 dB      4:11 15-Valse de amor increible
--------------------------------------------------------------------------------

Number of tracks:  15
Official DR value: DR10

Samplerate:        96000 Hz
Channels:          2
Bits per sample:   24
Bitrate:           2655 kbps
Codec:             FLAC
================================================================================
No seeders - write personal message to M0p94ok. Any questions - support@pro-jazz.com.
Нет сидеров - пишите в личку M0p94ok. Есть вопросы - support@pro-jazz.com
00:43
186
Нет комментариев. Ваш будет первым!