Поиск

2018 Super Quintet - Recado Bossa Nova (2020) {Venus VHGD-354} [DSD64]

2018 Super Quintet - Recado Bossa Nova (2020) {Venus VHGD-354} [DSD64]
Стили:
Дата издания диска:
18 марта 2020
Издатель (лейбл):
Номер по каталогу:
VHGD-354
Битрейт аудио:
lossless
Треклист:

1. Vicksville 《 H. Vick 》
2. Filidia 《 R. Draper 》
3. It’s You Or No One 《 J. Styne 》
4. No Room For Squares 《 H. Mobley 》
5. Easy Walker 《 B. Taylor 》
6. This Will Make You Laugh 《 P. Buck, M. Mills 》
7. Recado Bossa Nova 《 D. Ferreira 》
8. Good Morning Heartache 《 I. Higginbotham, E. Drake, D. Fisher 》
9. Star Eyes 《 G. D. Paul, D. Raye 》

Доп. инфо:

Формат записи/Источник записи: [SACD-R][OF]
Наличие водяных знаков: Нет
Год издания/переиздания диска: 2018/2020
Продолжительность: 01:01:58
Наличие сканов в содержимом раздачи: Да (сканы)

Контейнер: ISO (*.iso)
Тип рипа: image
Разрядность: 64 (2,8 MHz/1 Bit)
Формат: DSD
Количество каналов: 2.0

Доп. информация: venusrecord
Источник (релизер): jazzy pic

 

Лог проверки качества
foobar2000 1.6.2 / Замер динамического диапазона (DR) 1.1.1
Дата отчёта:  2020-12-11 20:18:18

--------------------------------------------------------------------------------
Анализ:   Super Quintet / Recado Bossa Nova
--------------------------------------------------------------------------------

DR         Пики         RMS           Продолжительность трека
--------------------------------------------------------------------------------
DR10      -1.44 дБ   -14.29 дБ      7:03 01-Vicksville
DR9       -1.98 дБ   -13.56 дБ      6:38 02-Filidia
DR9       -2.03 дБ   -13.01 дБ      6:19 03-It's You Or No One
DR9       -1.90 дБ   -12.74 дБ      6:57 04-No Room For Squares
DR10      -1.86 дБ   -13.86 дБ      7:33 05-Easy Walker
DR11      -2.43 дБ   -16.96 дБ      5:26 06-This Will Make You Laugh
DR9       -1.95 дБ   -12.97 дБ      7:12 07-Recado Bossa Nova
DR12      -2.22 дБ   -18.00 дБ      8:50 08-Good Morning Heartache
DR9       -1.94 дБ   -12.97 дБ      5:59 09-Star Eyes
--------------------------------------------------------------------------------

Количество треков: 9
Реальные значения DR: DR10

Частота:  2822400 Гц / Частота PCM: 352800 Гц
Каналов:  2
Разрядность:   1
Битрейт:  5645 кбит/с
Кодек:   DSD64
================================================================================
Приватный:
Нет (DHT включён)
Размер:
2.51 Гб (2,692,774,167 байт) » файлов: 4
Участники:
1 раздают, 0 качают (1 участников всего)
Внешние участники:
8 раздают, 2 качают (10 участников всего) [ Обновить ]
No seeders - write personal message to M0p94ok. Нет сидеров - пишите в личку M0p94ok.
01:02
117
Нет комментариев. Ваш будет первым!