Поиск

2019 Manuel Dunkel - Discoveries {Eclipse Music} [24-44.1]

2019 Manuel Dunkel - Discoveries {Eclipse Music} [24-44.1]
Стили:
Дата издания диска:
26 апреля 2019
Носитель:
WEB
Формат:
PCM
Тип рипа:
tracks+.cue
Контейнер:
APE (*.ape)
Количество каналов:
2.0
Разрядность/ЧД:
24/44,1
Битрейт аудио:
lossless
Время звучания:
00:51:47
Наличие сканов:
web
Наличие водяных знаков:
нет
Релизёр (источник):
M0p94ok

Треклист:

1    The Endless Path    8:01
2    Discoveries    7:04
3    In Light    6:51
4    Baltic Avenue    6:37
5    Sky Is Crying    4:45
6    Sun Dogs    6:25
7    The Next Peak    5:27
8    Subways    6:37

Лог проверки качества
foobar2000 1.3.16 / Dynamic Range Meter 1.1.1
log date: 2019-04-26 11:41:16

--------------------------------------------------------------------------------
Analyzed: Manuel Dunkel / Discoveries
--------------------------------------------------------------------------------

DR         Peak         RMS     Duration Track
--------------------------------------------------------------------------------
DR10      -0.51 dB   -12.29 dB      8:01 01-The Endless Path
DR10      -0.50 dB   -12.32 dB      7:04 02-Discoveries
DR10      -0.51 dB   -12.43 dB      6:52 03-In Light
DR9       -0.50 dB   -11.18 dB      6:37 04-Baltic Avenue
DR9       -3.28 dB   -14.24 dB      4:45 05-Sky Is Crying
DR10      -0.50 dB   -11.87 dB      6:26 06-Sun Dogs
DR9       -0.50 dB   -11.37 dB      5:28 07-The Next Peak
DR9       -0.50 dB   -11.81 dB      6:37 08-Subways
--------------------------------------------------------------------------------

Number of tracks:  8
Official DR value: DR9

Samplerate:        44100 Hz
Channels:          2
Bits per sample:   24
Bitrate:           1566 kbps
Codec:             FLAC
================================================================================
Приватный:
Нет (DHT включён)
Размер:
587.54 Мб (616,083,475 байт) » файлов: 10
Участники:
56 раздают, 0 качают (56 участников всего)
Внешние участники:
--- [ Обновить ]
No seeders - write personal message to M0p94ok. Нет сидеров - пишите в личку M0p94ok.
01:55
113
Нет комментариев. Ваш будет первым!