Поиск

2016 Mosaic - Subterranea {Edition EDN 1077} [24-96]

2016 Mosaic - Subterranea {Edition EDN 1077} [24-96]
Стили:
Дата записи диска:
31 марта - 2 апреля 2016
Место записи:
Real World Studios, Box, Wiltshire, England, UK
Дата издания диска:
18 ноября 2016
Издатель (лейбл):
Номер по каталогу:
EDN 1077
Носитель:
WEB
Формат:
PCM
Тип рипа:
tracks+.cue
Контейнер:
APE (*.ape)
Количество каналов:
2.0
Разрядность/ЧД:
24/96
Битрейт аудио:
lossless
Время звучания:
00:50:07
Наличие сканов:
web
Страна-производитель диска (релиза):
UK
Релизёр (источник):
M0p94ok
Лог проверки качества
foobar2000 1.6.2 / Dynamic Range Meter 1.1.1
log date: 2021-02-03 14:36:19

--------------------------------------------------------------------------------
Analyzed: Mosaic / Subterranea
--------------------------------------------------------------------------------

DR         Peak         RMS     Duration Track
--------------------------------------------------------------------------------
DR11       0.00 dB   -14.72 dB      8:26 01-White Horses
DR10       0.00 dB   -14.78 dB     12:17 02-Kairo Konko
DR11      -1.90 dB   -19.41 dB      4:29 03-Interlude I
DR11       0.00 dB   -14.73 dB      8:49 04-Subterranea
DR8       -2.02 dB   -16.94 dB      3:13 05-Interlude II
DR11       0.00 dB   -14.37 dB      8:48 06-Cryptogram
DR9        0.00 dB   -13.08 dB      4:08 07-Reprise
--------------------------------------------------------------------------------

Number of tracks:  7
Official DR value: DR10

Samplerate:        96000 Hz
Channels:          2
Bits per sample:   24
Bitrate:           2626 kbps
Codec:             FLAC
================================================================================
No seeders - write personal message to M0p94ok. Any questions - support@pro-jazz.com.
Нет сидеров - пишите в личку M0p94ok. Есть вопросы - support@pro-jazz.com
15:54
146
Нет комментариев. Ваш будет первым!