Поиск

2017 Tomoko Omura - Post Bop Gypsies {Inner Circle Music} [24-88.2]

2017 Tomoko Omura - Post Bop Gypsies {Inner Circle Music} [24-88.2]
Стили:
Дата записи диска:
13 декабря 2016
Место записи:
Tedesco Studios, Paramus, NJ, USA
Битрейт аудио:
lossless
Треклист:

01. Relaxin' at Camarillo (Parker) - 5:45
02. Four in One (Monk) - 6:15
03. Smile (Chaplin) - 6:25
04. JR (Omura) - 4:33
05. Boy from Boylston (Omura) - 6:06
06. Background Music (Marsh) - 4:51
07. Bachianas Brasileiras No.5 Aria (Villa-Lobos) - 6:56
08. Arabesque (Debussy) - 6:54
09. Midnight Sun (Hampton) - 4:53
10. Wee (Best) - 5:44

Лог проверки качества
foobar2000 1.6.2 / Dynamic Range Meter 1.1.1
log date: 2020-12-12 08:57:48

--------------------------------------------------------------------------------
Analyzed: Tomoko Omura / Post Bop Gypsies
--------------------------------------------------------------------------------

DR         Peak         RMS     Duration Track
--------------------------------------------------------------------------------
DR11      -0.35 dB   -12.76 dB      5:45 01-Relaxin' at Camarillo
DR12      -0.57 dB   -14.37 dB      6:15 02-Four in One
DR11      -0.14 dB   -14.11 dB      6:25 03-Smile
DR11      -1.08 dB   -14.80 dB      4:33 04-JR
DR12      -1.54 dB   -15.91 dB      6:06 05-Boy from Boylston
DR12      -0.87 dB   -14.86 dB      4:51 06-Background Music
DR12      -2.18 dB   -17.29 dB      6:56 07-Bachianas Brasileiras No.5 Aria
DR11      -0.30 dB   -13.66 dB      6:54 08-Arabesque
DR12      -2.29 dB   -18.82 dB      4:53 09-Midnight Sun
DR10      -0.49 dB   -13.16 dB      5:44 10-Wee
--------------------------------------------------------------------------------

Number of tracks:  10
Official DR value: DR11

Samplerate:        88200 Hz
Channels:          2
Bits per sample:   24
Bitrate:           2287 kbps
Codec:             FLAC
================================================================================
Приватный:
Нет (DHT включён)
Размер:
934.13 Мб (979,510,952 байт) » файлов: 14
Участники:
1 раздают, 0 качают (1 участников всего)
Внешние участники:
5 раздают, 1 качают (6 участников всего) [ Обновить ]
No seeders - write personal message to M0p94ok. Any questions - support@pro-jazz.com.
Нет сидеров - пишите в личку M0p94ok. Есть вопросы - support@pro-jazz.com
17:16
88
Нет комментариев. Ваш будет первым!