Поиск

1970 Ray Barretto - Ray Barretto (2020) {Fania} [24-96]

1970 Ray Barretto - Ray Barretto (2020) {Fania} [24-96]
Стили:
Битрейт аудио:
lossless

Треклист:

01 - Oye La Noticia 05:25
02 - Perla Del Sur 05:40
03 - Right On 02:40
04 - De Qué Te Quejas Tú 04:05
05 - Y Dicen 03:54
06 - Quitate La Máscara 04:26
07 - Se Que Volveras 03:45
08 - Power 05:59

Лог проверки качества
foobar2000 1.5.5 / Dynamic Range Meter 1.1.1
log date: 2020-10-26 06:06:37

--------------------------------------------------------------------------------
Analyzed: Ray Barretto / Barretto Power (Remastered)
--------------------------------------------------------------------------------

DR         Peak         RMS     Duration Track
--------------------------------------------------------------------------------
DR12      -0.01 dB   -14.83 dB      5:28 01-Oye La Noticia
DR12      -0.47 dB   -15.59 dB      5:45 02-Perla Del Sur
DR13      -0.22 dB   -14.89 dB      2:46 03-Right On
DR12      -0.04 dB   -14.16 dB      4:09 04-De Qué Te Quejas Tú
DR14       0.00 dB   -16.76 dB      3:56 05-Y Dicen
DR13      -1.69 dB   -17.56 dB      4:29 06-Quitate La Máscara
DR13      -1.43 dB   -18.73 dB      3:46 07-Se Que Volveras
DR14      -1.68 dB   -17.77 dB      6:06 08-Power
--------------------------------------------------------------------------------

Number of tracks:  8
Official DR value: DR13

Samplerate:        96000 Hz
Channels:          2
Bits per sample:   24
Bitrate:           3013 kbps
Codec:             FLAC
================================================================================
Приватный:
Нет (DHT включён)
Размер:
811.63 Мб (851,059,294 байт) » файлов: 13
Участники:
0 раздают, 0 качают (0 участников всего)
Внешние участники:
7 раздают, 2 качают (9 участников всего) [ Обновить ]
No seeders - write personal message to M0p94ok. Any questions - support@pro-jazz.com.
Нет сидеров - пишите в личку M0p94ok. Есть вопросы - support@pro-jazz.com
19:33
110
Нет комментариев. Ваш будет первым!