Поиск

2012 Nils Wülker - Just Here, Just Now {EAR TREAT music} [24-88.2]

2012 Nils Wülker - Just Here, Just Now {EAR TREAT music} [24-88.2]
Дата издания диска:
14 сентября 2012
Номер по каталогу:
0208254ETM
Носитель:
WEB
Формат:
PCM
Тип рипа:
tracks+.cue
Контейнер:
APE (*.ape)
Количество каналов:
2.0
Битрейт аудио:
lossless
Время звучания:
00:50:30
Наличие сканов:
web
Страна-производитель диска (релиза):
Germany
Релизёр (источник):
M0p94ok
Лог проверки качества
foobar2000 1.6.2 / Dynamic Range Meter 1.1.1
log date: 2021-02-04 19:14:58

--------------------------------------------------------------------------------
Analyzed: Nils Wülker / Just Here, Just Now
--------------------------------------------------------------------------------

DR         Peak         RMS     Duration Track
--------------------------------------------------------------------------------
DR7       -0.15 dB    -9.62 dB      4:09 01-Lakeside
DR9       -0.15 dB   -11.93 dB      4:59 02-Goodbye Sorrow
DR9       -0.15 dB   -12.32 dB      5:34 03-Walking On Air
DR8       -0.15 dB   -11.92 dB      6:10 04-Just Here, Just Now
DR9       -0.14 dB   -11.54 dB      5:09 05-Today's Gravity
DR10      -0.12 dB   -12.44 dB      4:52 06-September Skies
DR7       -0.11 dB   -12.13 dB      5:39 07-High and Rising
DR12      -0.15 dB   -15.04 dB      3:57 08-All We Need
DR10      -0.15 dB   -12.44 dB      3:45 09-Itchy Feet
DR7       -0.15 dB   -11.76 dB      6:40 10-Farewell
--------------------------------------------------------------------------------

Number of tracks:  10
Official DR value: DR9

Samplerate:        88200 Hz
Channels:          2
Bits per sample:   24
Bitrate:           2497 kbps
Codec:             FLAC
================================================================================
No seeders - write personal message to M0p94ok. Any questions - support@pro-jazz.com.
Нет сидеров - пишите в личку M0p94ok. Есть вопросы - support@pro-jazz.com
20:45
133
Нет комментариев. Ваш будет первым!