Поиск

2015 Oliver Lake - To Roy {Intakt CD243} [24-88.2]

2015 Oliver Lake - To Roy {Intakt CD243} [24-88.2]
Стили:
Дата записи диска:
14 января 2014
Место записи:
Peterkarlstudios, Brooklyn, NY, USA
Дата издания диска:
24 февраля 2015
Издатель (лейбл):
Номер по каталогу:
CD243
Носитель:
WEB
Формат:
PCM
Тип рипа:
tracks+.cue
Контейнер:
APE (*.ape)
Количество каналов:
2.0
Разрядность/ЧД:
24/88,2
Битрейт аудио:
lossless
Время звучания:
00:50:15
Наличие сканов:
web
Страна-производитель диска (релиза):
USA
Релизёр (источник):
M0p94ok
Лог проверки качества
foobar2000 1.6.2 / Dynamic Range Meter 1.1.1
log date: 2021-02-05 12:37:05

--------------------------------------------------------------------------------
Analyzed: Oliver Lake / To Roy
--------------------------------------------------------------------------------

DR         Peak         RMS     Duration Track
--------------------------------------------------------------------------------
DR13       0.00 dB   -16.40 dB      5:22 01-Variation on a Theme of Marvin Gaye
DR12      -0.17 dB   -14.91 dB      4:55 02-Check
DR12      -0.19 dB   -14.62 dB      3:41 03-Is It Alright?
DR15      -2.13 dB   -21.01 dB      5:06 04-Bisceglia
DR14      -1.55 dB   -20.50 dB      4:12 05-Flight Plan
DR12      -0.18 dB   -17.56 dB      5:22 06-Victor Jara
DR14      -0.20 dB   -17.89 dB      4:04 07-Two of Us
DR11      -0.17 dB   -15.03 dB      6:06 08-Bonu
DR13      -0.15 dB   -16.17 dB      3:32 09-Net Down
DR14      -2.04 dB   -20.00 dB      5:05 10-Light Over Still Water Paints a Portrait of God
DR10      -0.16 dB   -13.37 dB      2:55 11-To Roy
--------------------------------------------------------------------------------

Number of tracks:  11
Official DR value: DR13

Samplerate:        88200 Hz
Channels:          2
Bits per sample:   24
Bitrate:           2113 kbps
Codec:             FLAC
================================================================================
No seeders - write personal message to M0p94ok. Any questions - support@pro-jazz.com.
Нет сидеров - пишите в личку M0p94ok. Есть вопросы - support@pro-jazz.com
13:56
165
Нет комментариев. Ваш будет первым!