Поиск

2013 OrTie - Ortie {Laborie Jazz} [24-44.1]

2013 OrTie - Ortie {Laborie Jazz} [24-44.1]
Стили:
Дата издания диска:
1 января 2013
Носитель:
WEB
Формат:
PCM
Тип рипа:
tracks+.cue
Контейнер:
APE (*.ape)
Количество каналов:
2.0
Разрядность/ЧД:
24/44,1
Битрейт аудио:
lossless
Время звучания:
00:48:17
Наличие сканов:
web
Релизёр (источник):
M0p94ok
Лог проверки качества
foobar2000 1.3.16 / Dynamic Range Meter 1.1.1
log date: 2019-04-09 17:39:45

--------------------------------------------------------------------------------
Analyzed: OrTie / Ortie
--------------------------------------------------------------------------------

DR         Peak         RMS     Duration Track
--------------------------------------------------------------------------------
DR16      -1.57 dB   -25.21 dB      1:25 01-Presque rien
DR7       -0.10 dB   -10.30 dB      5:14 02-Gatito
DR8       -0.10 dB   -12.38 dB      6:09 03-Nebula
DR12      -0.10 dB   -16.37 dB      7:38 04-Meteore
DR7       -0.10 dB   -10.81 dB     12:14 05-Parashara
DR7       -0.10 dB   -12.27 dB      7:41 06-Eliode
DR10      -0.10 dB   -14.61 dB      6:25 07-C'est rien, c'est la fatigue
DR11      -4.68 dB   -21.37 dB      1:24 08-Pour ainsi dire
--------------------------------------------------------------------------------

Number of tracks:  8
Official DR value: DR10

Samplerate:        44100 Hz
Channels:          2
Bits per sample:   24
Bitrate:           1286 kbps
Codec:             FLAC
================================================================================
No seeders - write personal message to M0p94ok. Any questions - support@pro-jazz.com.
Нет сидеров - пишите в личку M0p94ok. Есть вопросы - support@pro-jazz.com
18:17
142
Нет комментариев. Ваш будет первым!