Вы используете незарегистрированную версию компонента "Вкладки"!

Поиск

1995 Claude Williamson Trio - Autumn In New York (2016) {Venus VHGD-173} [DSD64]

1995 Claude Williamson Trio - Autumn In New York (2016) {Venus VHGD-173} [DSD64]
Стили:
Дата записи диска:
22 апреля - 23 апреля 1995
Место записи:
Van Gelder Recording Studio, Englewood Cliffs, New Jersey, USA
Издатель (лейбл):
Номер по каталогу:
VHGD-173
Битрейт аудио:
lossless
Доп. инфо:

Формат записи/Источник записи: [SACD-R][OF]
Наличие водяных знаков: Нет
Год издания/переиздания диска: 1995/2016
Издатель (лейбл): Venus Records [VHGD-173]
Продолжительность: 00:56:49
Наличие сканов в содержимом раздачи: Да (сканы)

Контейнер: ISO (*.iso)
Тип рипа: image
Разрядность: 64(2,8 MHz/1 Bit)
Формат: DSD
Количество каналов: 2.0

Доп. информация: venusrecord
Источник (релизер): jazzy pic

Лог проверки качества
foobar2000 1.6.2 / Замер динамического диапазона (DR) 1.1.1
Дата отчёта:  2020-12-12 12:07:58

--------------------------------------------------------------------------------
Анализ:   CLAUDE WILLIAMSON TRIO / Autumn In New York
--------------------------------------------------------------------------------

DR         Пики         RMS           Продолжительность трека
--------------------------------------------------------------------------------
DR10      -2.72 дБ   -15.74 дБ      8:18 01-Linear Motion
DR12      -2.62 дБ   -16.46 дБ      7:23 02-Autumn In New York
DR11      -1.55 дБ   -14.96 дБ      4:19 03-Samba Lhasa
DR12      -2.93 дБ   -16.61 дБ      5:50 04-Manhattan
DR12      -3.08 дБ   -17.20 дБ      4:16 05-News From Blueport
DR11      -2.40 дБ   -15.71 дБ      3:40 06-I Want To Be Happy
DR11      -2.61 дБ   -16.49 дБ      5:59 07-Moonlight In Vermont
DR11      -2.54 дБ   -16.29 дБ      4:44 08-Crow's Other Nest
DR11      -2.83 дБ   -15.62 дБ      4:40 09-How About You
DR11      -2.73 дБ   -16.53 дБ      7:40 10-Over The Rainbow
--------------------------------------------------------------------------------

Количество треков: 10
Реальные значения DR: DR11

Частота:  2822400 Гц / Частота PCM: 352800 Гц
Каналов:  2
Разрядность:   1
Битрейт:  5645 кбит/с
Кодек:   DSD64
================================================================================
Any questions - support@pro-jazz.com. Есть вопросы - support@pro-jazz.com
19:03
200
Нет комментариев. Ваш будет первым!