Поиск

2016 Per Oddvar Johansen - Let's Dance {Edition EDN1068} [24-44.1]

2016 Per Oddvar Johansen - Let's Dance {Edition EDN1068} [24-44.1]
Дата издания диска:
25 марта 2016
Издатель (лейбл):
Номер по каталогу:
EDN1068
Носитель:
WEB
Формат:
PCM
Тип рипа:
tracks+.cue
Контейнер:
APE (*.ape)
Количество каналов:
2.0
Разрядность/ЧД:
24/44,1
Битрейт аудио:
lossless
Время звучания:
00:42:46
Наличие сканов:
web
Наличие водяных знаков:
нет
Страна-производитель диска (релиза):
Norway
Релизёр (источник):
M0p94ok

Треклист:

1. Let's Dance  05:45
2. No. 7  04:20
3. Forest Flower  03:47
4. Flying  08:26
5. Panorama  06:37
6. Uluṟu (For Anette)  02:19
7. Impromptro  02:44
8. Families  03:15
9. Song M  05:29

Лог проверки качества
foobar2000 1.3.16 / Dynamic Range Meter 1.1.1
log date: 2019-04-25 08:42:45

--------------------------------------------------------------------------------
Analyzed: Per Oddvar Johansen / Let's Dance
--------------------------------------------------------------------------------

DR         Peak         RMS     Duration Track
--------------------------------------------------------------------------------
DR11      -0.77 dB   -16.09 dB      5:44 01-Let's Dance
DR11      -0.87 dB   -13.05 dB      4:18 02-No. 7
DR13      -0.90 dB   -21.54 dB      3:48 03-Forest Flower
DR11      -0.91 dB   -15.35 dB      8:24 04-Flying
DR11      -0.78 dB   -17.38 dB      6:35 05-Panorama
DR12      -0.90 dB   -15.73 dB      2:17 06-Uluṟu (For Anette)
DR16     -10.89 dB   -34.16 dB      2:44 07-Impromptro
DR11      -0.95 dB   -16.79 dB      3:15 08-Families
DR11      -0.95 dB   -16.28 dB      5:30 09-Song M
--------------------------------------------------------------------------------

Number of tracks:  9
Official DR value: DR12

Samplerate:        44100 Hz
Channels:          2
Bits per sample:   24
Bitrate:           1427 kbps
Codec:             FLAC
================================================================================
Приватный:
Нет (DHT включён)
Размер:
404.76 Мб (424,423,923 байт) » файлов: 11
Участники:
0 раздают, 0 качают (0 участников всего)
Внешние участники:
--- [ Обновить ]
No seeders - write personal message to M0p94ok. Нет сидеров - пишите в личку M0p94ok.
20:06
118
Нет комментариев. Ваш будет первым!