Вы используете незарегистрированную версию компонента "Вкладки"!

Поиск

1993 Claude Williamson Trio - Song For My Father (2018) {Venus VHGD-269} [DSD64]

1993 Claude Williamson Trio - Song For My Father (2018) {Venus VHGD-269} [DSD64]
Стили:
Дата записи диска:
15 мая 1993
Место записи:
The Bakery Recording Studio, North Hollywood, CA
Издатель (лейбл):
Номер по каталогу:
VHGD-269
Битрейт аудио:
lossless
Доп. инфо:

Формат записи/Источник записи: [SACD-R][OF]
Наличие водяных знаков: Нет
Год издания/переиздания диска: 1993/2018
Продолжительность: 00:38:48
Наличие сканов в содержимом раздачи: Да (сканы)

Контейнер: ISO (*.iso)
Тип рипа: image
Разрядность: 64(2,8 MHz/1 Bit)
Формат: DSD
Количество каналов: 2.0

Доп. информация: venusrecord
Источник (релизер): jazzy pic

Лог проверки качества
foobar2000 1.6.2 / Замер динамического диапазона (DR) 1.1.1
Дата отчёта:  2020-12-12 12:38:06

--------------------------------------------------------------------------------
Анализ:   CLAUDE WILLIAMSON TRIO / Song For My Father
--------------------------------------------------------------------------------

DR         Пики         RMS           Продолжительность трека
--------------------------------------------------------------------------------
DR12      -2.82 дБ   -16.91 дБ      7:16 01-My Romance
DR12      -3.31 дБ   -17.39 дБ      6:51 02-Easy Living
DR12      -2.42 дБ   -16.15 дБ      5:07 03-Feelin' Fine
DR11      -2.63 дБ   -15.58 дБ      3:44 04-Work Song
DR12      -2.72 дБ   -16.27 дБ      4:44 05-Alone Together
DR10      -2.91 дБ   -14.84 дБ      4:02 06-There Will Never Be Another You
DR12      -2.75 дБ   -17.85 дБ      7:05 07-Song For My Father
--------------------------------------------------------------------------------

Количество треков: 7
Реальные значения DR: DR12

Частота:  2822400 Гц / Частота PCM: 352800 Гц
Каналов:  2
Разрядность:   1
Битрейт:  5645 кбит/с
Кодек:   DSD64
================================================================================
Any questions - support@pro-jazz.com. Есть вопросы - support@pro-jazz.com
15:26
176
Нет комментариев. Ваш будет первым!