Поиск

2014 Regina Carter - Southern Comfort {Sony Masterworks 88843005052} [24-96]

2014 Regina Carter - Southern Comfort {Sony Masterworks 88843005052} [24-96]
Дата издания диска:
28 февраля 2014
Издатель (лейбл):
Номер по каталогу:
88843005052
Носитель:
WEB
Формат:
PCM
Тип рипа:
tracks+.cue
Контейнер:
APE (*.ape)
Количество каналов:
2.0
Разрядность/ЧД:
24/96
Битрейт аудио:
lossless
Время звучания:
00:56:17
Наличие сканов:
да
Наличие водяных знаков:
нет
Страна-производитель диска (релиза):
USA
Релизёр (источник):
M0p94ok

Треклист:

01. Miner's Child  05:01
02. Trampin'  02:11
03. Hickory Wind  04:36
04. Shoo-Rye  07:20
05. Blues de Basile  04:39
06. I'm Going Home  07:11
07. Honky Tonkin'  03:52
08. Cornbread Crumbled in Gravy  04:12
09. See See Rider  05:14
10. I Moaned and I Moaned  03:32
11. Death Have Mercy / Breakaway  08:21

Лог проверки качества
foobar2000 1.3.16 / Dynamic Range Meter 1.1.1
log date: 2019-04-29 13:13:49

--------------------------------------------------------------------------------
Analyzed: Regina Carter / Southern Comfort
--------------------------------------------------------------------------------

DR         Peak         RMS     Duration Track
--------------------------------------------------------------------------------
DR12      -0.11 dB   -14.94 dB      5:01 01-Miner's Child
DR14      -0.04 dB   -15.89 dB      2:12 02-Trampin'
DR13      -0.01 dB   -16.81 dB      4:37 03-Hickory Wind
DR14      -0.45 dB   -18.78 dB      7:22 04-Shoo-Rye
DR13      -0.01 dB   -15.65 dB      4:39 05-Blues de Basile
DR15      -0.30 dB   -19.57 dB      7:12 06-I'm Going Home
DR12      -0.11 dB   -15.62 dB      3:53 07-Honky Tonkin'
DR13      -0.11 dB   -15.76 dB      4:14 08-Cornbread Crumbled in Gravy
DR13       0.00 dB   -16.10 dB      5:15 09-See See Rider
DR12      -0.22 dB   -16.16 dB      3:34 10-I Moaned and I Moaned
DR13       0.00 dB   -16.83 dB      8:21 11-Death Have Mercy / Breakaway
--------------------------------------------------------------------------------

Number of tracks:  11
Official DR value: DR13

Samplerate:        96000 Hz
Channels:          2
Bits per sample:   24
Bitrate:           2492 kbps
Codec:             FLAC
================================================================================
Приватный:
Нет (DHT включён)
Размер:
1.06 Гб (1,133,728,022 байт) » файлов: 14
Участники:
0 раздают, 0 качают (0 участников всего)
Внешние участники:
--- [ Обновить ]
No seeders - write personal message to M0p94ok. Нет сидеров - пишите в личку M0p94ok.
17:40
115
Нет комментариев. Ваш будет первым!