Поиск

1992 Claude Williamson Trio - South Of The Border West Of The Sun (2017) {Venus 5047635} [DSD64]

1992 Claude Williamson Trio - South Of The Border West Of The Sun (2017) {Venus 5047635} [DSD64]
Стили:
Дата записи диска:
15 декабря 1992
Место записи:
The Bakery Recording Studio, North Hollywood, CA, USA
Издатель (лейбл):
Номер по каталогу:
5047635
Битрейт аудио:
lossless
Доп. инфо:

Формат записи/Источник записи: [SACD-R][OF]
Наличие водяных знаков: Нет
Год издания/переиздания диска: 1992/2017
Продолжительность: 00:45:33
Наличие сканов в содержимом раздачи: Да (сканы)
Контейнер: ISO (*.iso)
Тип рипа: image
Разрядность: 64(2,8 MHz/1 Bit)
Формат: DSD
Количество каналов: 2.0

Доп. информация: venusrecord
Источник (релизер): jazzy pic

Лог проверки качества
foobar2000 1.6.2 / Замер динамического диапазона (DR) 1.1.1
Дата отчёта:  2020-12-12 18:52:58

--------------------------------------------------------------------------------
Анализ:   CLAUDE WILLIAMSON TRIO / South Of The Border West Of The Sun
--------------------------------------------------------------------------------

DR         Пики         RMS           Продолжительность трека
--------------------------------------------------------------------------------
DR14      -1.34 дБ   -18.11 дБ      6:33 01-South Of The Border
DR13      -2.24 дБ   -17.61 дБ      4:39 02-Star Crossed Lovers
DR12      -1.50 дБ   -15.39 дБ      4:56 03-Robbin's Nest
DR12      -1.80 дБ   -15.72 дБ      5:51 04-Embraceable You
DR13      -1.56 дБ   -16.50 дБ      5:20 05-Pretendo
DR13      -1.60 дБ   -16.57 дБ      5:24 06-Corcovado
DR13      -1.55 дБ   -16.93 дБ      6:54 07-As Time Goes By
DR12      -1.81 дБ   -16.10 дБ      5:56 08-West Of The Sun
--------------------------------------------------------------------------------

Количество треков: 8
Реальные значения DR: DR13

Частота:  2822400 Гц / Частота PCM: 352800 Гц
Каналов:  2
Разрядность:   1
Битрейт:  5645 кбит/с
Кодек:   DSD64
================================================================================
No seeders - write personal message to M0p94ok. Any questions - support@pro-jazz.com.
Нет сидеров - пишите в личку M0p94ok. Есть вопросы - support@pro-jazz.com
23:07
158
Нет комментариев. Ваш будет первым!