Поиск

2020 Peter Bernstein - What Comes Next {Smoke Sessions} [24-96]

2020 Peter Bernstein - What Comes Next {Smoke Sessions} [24-96]
Стили:
Дата издания диска:
16 октября 2020
Издатель (лейбл):
Битрейт аудио:
lossless
Доп. инфо:

Формат записи/Источник записи: [TR24][OF]
Наличие водяных знаков: Нет
Год издания/переиздания диска: 2020
Продолжительность: 00:58:32
Наличие сканов в содержимом раздачи: Нет

Контейнер: FLAC (*.flac)
Тип рипа: tracks
Разрядность: 24/96
Формат: PCM
Количество каналов: 2.0

Источник (релизер): qobuz.com (plitss)

Лог проверки качества
foobar2000 1.4.6 / Замер динамического диапазона (DR) 1.1.1
Дата отчёта:  2020-12-12 19:20:02

--------------------------------------------------------------------------------
Анализ:   Peter Bernstein / What Comes Next
--------------------------------------------------------------------------------

DR         Пики         RMS           Продолжительность трека
--------------------------------------------------------------------------------
DR9       -1.40 дБ   -12.85 дБ      7:21 01-Simple as That
DR9       -1.40 дБ   -12.62 дБ      5:59 02-What Comes Next
DR9       -1.40 дБ   -13.29 дБ      6:17 03-Empty Streets
DR8       -1.40 дБ   -11.33 дБ      7:20 04-Harbor No Illusions
DR9       -1.40 дБ   -11.40 дБ      5:35 05-Dance in Your Blood
DR8       -1.40 дБ   -11.25 дБ      5:16 06-We'll Be Togther Again
DR8       -1.40 дБ   -11.43 дБ      7:07 07-Con Alma
DR9       -1.40 дБ   -12.48 дБ      8:28 08-Blood Wolf Moon Blues
DR8       -1.40 дБ   -11.07 дБ      5:08 09-Newark News
--------------------------------------------------------------------------------

Количество треков: 9
Реальные значения DR: DR9

Частота:   96000 Гц
Каналов:   2
Разрядность:   24
Битрейт:   3025 кбит/с
Кодек:   FLAC
================================================================================
No seeders - write personal message to M0p94ok. Any questions - support@pro-jazz.com.
Нет сидеров - пишите в личку M0p94ok. Есть вопросы - support@pro-jazz.com
13:08
142
Нет комментариев. Ваш будет первым!