Поиск

2018 Trinom3 - Just A Bit Further {Cellar Live CL121217} [24-48]

2018 Trinom3 - Just A Bit Further {Cellar Live CL121217} [24-48]
Стили:
Место записи:
BlueRoom Studios, Studio City, CA
Дата издания диска:
8 июня 2018
Издатель (лейбл):
Номер по каталогу:
CL121217
Носитель:
WEB
Формат:
PCM
Тип рипа:
tracks+.cue
Контейнер:
APE (*.ape)
Количество каналов:
2.0
Разрядность/ЧД:
24/48
Битрейт аудио:
lossless
Время звучания:
01:09:08
Наличие сканов:
web
Наличие водяных знаков:
нет
Релизёр (источник):
M0p94ok

Треклист:

01. Peter Lorre  05:33
02. Just A Bit Further  07:02
03. Jag  06:09
04. Daub And Wattle  06:25
05. Into The Dream We Go  08:51
06. Kashmir  07:49
07. Majorly  04:44
08. Feedin' The Meter  05:16
09. Anyway  06:20
10. Truth Be Told  06:14
11. Slice  04:45

Лог проверки качества
foobar2000 1.3.16 / Dynamic Range Meter 1.1.1
log date: 2019-04-24 20:21:22

--------------------------------------------------------------------------------
Analyzed: Trinom3 / Just A Bit Further
--------------------------------------------------------------------------------

DR         Peak         RMS     Duration Track
--------------------------------------------------------------------------------
DR9        0.00 dB   -11.16 dB      5:33 01-Peter Lorre
DR9       -1.22 dB   -14.15 dB      7:02 02-Just A Bit Further
DR9        0.00 dB   -11.23 dB      6:09 03-Jag
DR9        0.00 dB   -11.93 dB      6:25 04-Daub And Wattle
DR10       0.00 dB   -13.68 dB      8:52 05-Into The Dream We Go
DR7        0.00 dB    -9.28 dB      7:50 06-Kashmir
DR11       0.00 dB   -13.34 dB      4:44 07-Majorly
DR10      -0.16 dB   -11.75 dB      5:17 08-Feedin' The Meter
DR7        0.00 dB   -10.85 dB      6:21 09-Anyway
DR11      -1.03 dB   -14.20 dB      6:14 10-Truth Be Told
DR9        0.00 dB   -10.73 dB      4:45 11-Slice
--------------------------------------------------------------------------------

Number of tracks:  11
Official DR value: DR9

Samplerate:        48000 Hz
Channels:          2
Bits per sample:   24
Bitrate:           1749 kbps
Codec:             FLAC
================================================================================
Приватный:
Нет (DHT включён)
Размер:
815.58 Мб (855,197,619 байт) » файлов: 13
Участники:
4 раздают, 0 качают (4 участников всего)
Внешние участники:
--- [ Обновить ]
No seeders - write personal message to M0p94ok. Any questions - support@pro-jazz.com.
Нет сидеров - пишите в личку M0p94ok. Есть вопросы - support@pro-jazz.com
13:55
111
Нет комментариев. Ваш будет первым!