Вы используете незарегистрированную версию компонента "Вкладки"!

Поиск

1994 Claude Williamson Trio - El Noche De Espana (2019) {Venus VHGD-341} [DSD64]

1994 Claude Williamson Trio - El Noche De Espana (2019) {Venus VHGD-341} [DSD64]
Стили:
Издатель (лейбл):
Номер по каталогу:
VHGD-341
Битрейт аудио:
lossless
Доп. инфо:

Формат записи/Источник записи: [SACD-R][OF]
Наличие водяных знаков: Нет
Год издания диска: 2019
Продолжительность: 00:55:27
Наличие сканов в содержимом раздачи: Да (сканы)

Контейнер: ISO (*.iso)
Тип рипа: image
Разрядность: 64(2,8 MHz/1 Bit)
Формат: DSD
Количество каналов: 2.0

Доп. информация: venusrecord
Источник (релизер): jazzy pic

Лог проверки качества
foobar2000 1.6.2 / Замер динамического диапазона (DR) 1.1.1
Дата отчёта:  2020-12-12 19:39:28

--------------------------------------------------------------------------------
Анализ:   CLAUDE WILLIAMSON TRIO / EL NOCHE DE ESPAÑA
--------------------------------------------------------------------------------

DR         Пики         RMS           Продолжительность трека
--------------------------------------------------------------------------------
DR10      -2.99 дБ   -14.62 дБ      5:34 01-Señor Blues
DR9       -2.92 дБ   -14.65 дБ      5:14 02-Poinciana
DR10      -3.30 дБ   -15.13 дБ      6:17 03-Estrellita
DR10      -3.11 дБ   -15.15 дБ      6:07 04-Barbados
DR9       -3.05 дБ   -14.40 дБ      6:02 05-El Noche De España
DR10      -3.30 дБ   -14.96 дБ      5:53 06-Besame Mucho
DR10      -2.96 дБ   -14.50 дБ      4:58 07-Smoke Gets In Your Eyes
DR10      -3.12 дБ   -14.51 дБ      6:17 08-Estate
DR11      -3.27 дБ   -15.67 дБ      4:34 09-I Heard you Cried Last Night
DR10      -3.58 дБ   -16.44 дБ      4:32 10-Nightingale In Berkeley Square
--------------------------------------------------------------------------------

Количество треков: 10
Реальные значения DR: DR10

Частота:  2822400 Гц / Частота PCM: 352800 Гц
Каналов:  2
Разрядность:   1
Битрейт:  5645 кбит/с
Кодек:   DSD64
================================================================================
Any questions - support@pro-jazz.com. Есть вопросы - support@pro-jazz.com
15:36
170
Нет комментариев. Ваш будет первым!