Поиск

2017 Tardo Hammer Trio - Swinging On A Star {Cellar Live CL010717} [24-88.2]

2017 Tardo Hammer Trio - Swinging On A Star {Cellar Live CL010717} [24-88.2]
Стили:
Дата записи диска:
7 января 2017
Место записи:
Trading 8s Recording Studio, Paramus, New Jersey
Издатель (лейбл):
Номер по каталогу:
CL010717
Носитель:
WEB
Формат:
PCM
Тип рипа:
tracks+.cue
Контейнер:
APE (*.ape)
Количество каналов:
2.0
Разрядность/ЧД:
24/88,2
Битрейт аудио:
lossless
Время звучания:
00:46:45
Наличие сканов:
web
Наличие водяных знаков:
нет
Страна-производитель диска (релиза):
Canada
Релизёр (источник):
M0p94ok

Треклист:

1. Gone  03:50
2. Numero Uno  05:38
3. Swinging On A Star  04:53
4. Samba Do Brilho  04:11
5. How Are Things In Glocca Morra  06:58
6. Little Willie Leaps  03:29
7. I Found A Million Dollar Baby  05:35
8. Ballad For Very Tired And Sad Lotus Eaters  05:52
9. Monk's Dream  06:18

Лог проверки качества
foobar2000 1.3.16 / Dynamic Range Meter 1.1.1
log date: 2019-04-24 20:21:05

--------------------------------------------------------------------------------
Analyzed: Tardo Hammer Trio / Swinging On A Star
--------------------------------------------------------------------------------

DR         Peak         RMS     Duration Track
--------------------------------------------------------------------------------
DR10      -0.30 dB   -11.87 dB      3:50 01-Gone
DR10      -0.30 dB   -12.05 dB      5:38 02-Numero Uno
DR10      -0.30 dB   -11.23 dB      4:54 03-Swinging On A Star
DR9       -0.30 dB   -11.12 dB      4:12 04-Samba Do Brilho
DR14      -0.30 dB   -18.56 dB      6:59 05-How Are Things In Glocca Morra
DR9       -0.30 dB   -10.65 dB      3:30 06-Little Willie Leaps
DR10      -0.30 dB   -11.48 dB      5:36 07-I Found A Million Dollar Baby
DR14      -0.30 dB   -17.47 dB      5:52 08-Ballad For Very Tired And Sad Lotus Eaters
DR9       -0.30 dB   -11.82 dB      6:19 09-Monk's Dream
--------------------------------------------------------------------------------

Number of tracks:  9
Official DR value: DR11

Samplerate:        88200 Hz
Channels:          2
Bits per sample:   24
Bitrate:           2834 kbps
Codec:             FLAC
================================================================================
Приватный:
Нет (DHT включён)
Размер:
901.02 Мб (944,786,277 байт) » файлов: 11
Участники:
0 раздают, 1 качают (1 участников всего)
Внешние участники:
--- [ Обновить ]
No seeders - write personal message to M0p94ok. Нет сидеров - пишите в личку M0p94ok.
18:41
110
Нет комментариев. Ваш будет первым!