Поиск

2020 Mike Rud Trio - Salome's Dance: Invites Peter Bernstein {Bent River} [24-96]

2020 Mike Rud Trio - Salome's Dance: Invites Peter Bernstein {Bent River} [24-96]
Битрейт аудио:
lossless

Треклист:

1. Salome's Dance  6:46
2. Petroglyph  04:42
3. Leonard Cohen  03:22
4. Shuffle Pants  03:40
5. Parc La Fontaine  03:47
6. I'm Getting Sentimental over You  06:22
7. A Man of the World  06:00
8. Amsterdam Avenue  04:13
9. Blood Wolf Moon Blues feat. Peter Bernstein  05:54

Доп. инфо:

Формат записи/Источник записи: [TR24][OF]
Наличие водяных знаков: Нет
Год издания/переиздания диска: 2020
Издатель (лейбл): Bent River Records
Продолжительность: 00:44:50
Наличие сканов в содержимом раздачи: Буклет PDF

Контейнер: FLAC (*.flac)
Тип рипа: tracks
Разрядность: 24/96
Формат: LPCM
Количество каналов: 2.0

Источник (релизер): mikerud.com (Tirial)

Лог проверки качества
foobar2000 1.4.6 / Замер динамического диапазона (DR) 1.1.1
Дата отчёта:  2020-12-13 09:09:56

--------------------------------------------------------------------------------
Анализ:   Mike Rud / Salome's Dance
--------------------------------------------------------------------------------

DR         Пики         RMS           Продолжительность трека
--------------------------------------------------------------------------------
DR11      -1.00 дБ   -14.07 дБ      6:46 01-Salome's Dance
DR11      -1.00 дБ   -14.00 дБ      4:42 02-Petroglyph
DR13      -1.00 дБ   -17.17 дБ      3:22 03-Leonard Cohen
DR11      -1.00 дБ   -13.89 дБ      3:40 04-Shuffle Pants
DR13      -1.00 дБ   -17.63 дБ      3:48 05-Parc Lafontaine
DR13      -1.00 дБ   -16.03 дБ      6:23 06-I'm Getting Sentimental Over You
DR13      -1.00 дБ   -16.42 дБ      6:00 07-A Man Of The World
DR11      -1.00 дБ   -13.87 дБ      4:14 08-Amsterdam Avenue
DR11      -1.00 дБ   -14.10 дБ      5:54 09-Blood Wolf Moon Blues
--------------------------------------------------------------------------------

Количество треков: 9
Реальные значения DR: DR12

Частота:   96000 Гц
Каналов:   2
Разрядность:   24
Битрейт:   2667 кбит/с
Кодек:   FLAC
================================================================================
Приватный:
Нет (DHT включён)
Размер:
835.52 Мб (876,109,121 байт) » файлов: 14
Участники:
3 раздают, 0 качают (3 участников всего)
Внешние участники:
5 раздают, 2 качают (7 участников всего) [ Обновить ]
No seeders - write personal message to M0p94ok. Нет сидеров - пишите в личку M0p94ok.
19:55
126
Нет комментариев. Ваш будет первым!