Поиск

1976 Arne Domnerus, Gustaf Sjokvist - Antiphone Blues (2001) {First Impression Music} [DSD64]

1976 Arne Domnerus, Gustaf Sjokvist - Antiphone Blues (2001) {First Impression Music} [DSD64]
Стили:
Дата записи диска:
24 августа 1974
Место записи:
Spånga Church, Sweden
Битрейт аудио:
lossless
Доп. инфо:

Формат записи/Источник записи: [SACD-R][OF]
Наличие водяных знаков: Нет
Год записи: 1976,1996
Год издания диска: 2001
Издатель (лейбл): First Impression Music - [SACD-050]
Продолжительность: 00:53:12
Наличие сканов в содержимом раздачи: Да (сканы)

Контейнер: ISO (*.iso)
Тип рипа: image
Разрядность: 64(2,8 MHz/1 Bit)
Формат: DSD
Количество каналов: 2.0

Доп. информация: www.hraudio.net
Источник (релизер): jazzy pic

Лог проверки качества
foobar2000 1.6.2 / Замер динамического диапазона (DR) 1.1.1
Дата отчёта:  2020-12-13 16:22:58

--------------------------------------------------------------------------------
Анализ:   Arne Domnérus, Gustaf Sjökvist / Antiphone Blues
--------------------------------------------------------------------------------

DR         Пики         RMS           Продолжительность трека
--------------------------------------------------------------------------------
DR13     -10.33 дБ   -26.08 дБ      4:34 01-Träumerei
DR12      -6.44 дБ   -21.60 дБ      2:26 02-Sometimes I Feel Like A Motherless Child
DR12      -5.66 дБ   -21.90 дБ      3:10 03-Nobody Knows The Trouble I've Seen
DR12      -6.89 дБ   -22.28 дБ      3:20 04-Antiphone Blues
DR11      -4.71 дБ   -20.31 дБ      2:40 05-Jag Vet En Dejig Rosa
DR11      -6.93 дБ   -21.72 дБ      3:33 06-Entonigt Klingar Den Lilla Klockan
DR13      -8.28 дБ   -24.66 дБ      3:10 07-Heaven
DR12      -8.52 дБ   -24.00 дБ      4:35 08-Come Sunday
DR12      -9.04 дБ   -24.95 дБ      3:45 09-Den Signade Dag
DR12      -7.25 дБ   -21.86 дБ      3:09 10-Almighty God
DR12      -8.40 дБ   -23.41 дБ      3:07 11-Largo
DR13      -8.04 дБ   -22.59 дБ      4:00 12-The Shepard
DR12      -6.26 дБ   -21.73 дБ      3:43 13-Hymn To Freedom
DR12      -7.44 дБ   -21.37 дБ      4:13 14-Dedication
DR12      -7.59 дБ   -21.76 дБ      3:49 15-Tonight I Shall Sleep
--------------------------------------------------------------------------------

Количество треков: 15
Реальные значения DR: DR12

Частота:  2822400 Гц / Частота PCM: 352800 Гц
Каналов:  2
Разрядность:   1
Битрейт:  5645 кбит/с
Кодек:   DSD64
================================================================================
No seeders - write personal message to M0p94ok. Any questions - support@pro-jazz.com.
Нет сидеров - пишите в личку M0p94ok. Есть вопросы - support@pro-jazz.com
21:50
159
Нет комментариев. Ваш будет первым!