Поиск

2015 Eli Degibri - Cliff Hangin' {Degibri} [24-88.2]

2015 Eli Degibri - Cliff Hangin' {Degibri} [24-88.2]
Номер по каталогу:
DR1007
Носитель:
WEB
Формат:
PCM
Тип рипа:
tracks+.cue
Контейнер:
APE (*.ape)
Количество каналов:
2.0
Разрядность/ЧД:
24/88,2
Битрейт аудио:
lossless
Время звучания:
00:50:03
Наличие сканов:
web
Наличие водяных знаков:
нет
Страна-производитель диска (релиза):
Israel
Релизёр (источник):
M0p94ok

Треклист:

01. The Troll  03:47
02. Cliff Hangin'  05:45
03. Even Bees Do It  02:26
04. Kind of Blues  05:17
05. Suki the Cat  04:57
06. Twiced  05:22
07. Ocean View  04:09
08. Shesh Besh  04:48
09. Momento Fugaz  04:03
10. The Unknown Neighbor  04:55
11. What Am I Doing Here  04:59

Лог проверки качества
foobar2000 1.6.2 / Dynamic Range Meter 1.1.1
log date: 2021-02-07 20:39:23

--------------------------------------------------------------------------------
Analyzed: Eli Degibri / Cliff Hangin'
--------------------------------------------------------------------------------

DR         Peak         RMS     Duration Track
--------------------------------------------------------------------------------
DR11      -0.40 dB   -13.61 dB      3:47 01-The Troll
DR10      -0.40 dB   -12.84 dB      5:46 02-Cliff Hangin'
DR10      -0.40 dB   -12.58 dB      2:27 03-Even Bees Do It
DR11      -0.40 dB   -13.97 dB      5:17 04-King of Blues
DR9       -0.40 dB   -11.70 dB      4:57 05-Suki the Cat
DR10      -0.40 dB   -12.27 dB      5:23 06-Twiced
DR10      -0.40 dB   -12.41 dB      4:09 07-Ocean View
DR9       -0.40 dB   -12.11 dB      4:49 08-Shesh Besh
DR11      -0.40 dB   -13.78 dB      4:04 09-Momento Fugaz (feat. Shlomo Ydov)
DR12      -0.40 dB   -15.33 dB      4:56 10-The Unknown Neighbor
DR10      -0.40 dB   -12.70 dB      4:59 11-What Am I Doing Here
--------------------------------------------------------------------------------

Number of tracks:  11
Official DR value: DR10

Samplerate:        88200 Hz
Channels:          2
Bits per sample:   24
Bitrate:           2785 kbps
Codec:             FLAC
================================================================================
Приватный:
Нет (DHT включён)
Размер:
980.67 Мб (1,028,301,930 байт) » файлов: 13
Участники:
0 раздают, 0 качают (0 участников всего)
Внешние участники:
--- [ Обновить ]
No seeders - write personal message to M0p94ok. Any questions - support@pro-jazz.com.
Нет сидеров - пишите в личку M0p94ok. Есть вопросы - support@pro-jazz.com
22:32
105
Нет комментариев. Ваш будет первым!