Поиск

2021 Nicola Angelucci - Changes {Warner Music} [24-48]

2021 Nicola Angelucci - Changes {Warner Music} [24-48]
Стили:
Дата издания диска:
9 июля 2021
Издатель (лейбл):
Носитель:
WEB
Формат:
PCM
Тип рипа:
tracks
Контейнер:
FLAC (*.flac)
Количество каналов:
2.0
Разрядность/ЧД:
24/48
Битрейт аудио:
lossless
Время звучания:
00:50:26
Наличие сканов:
только обложка

01. Flowing 03:08
02. Tempo libero 03:31
03. Love Is a Never Ending Story 05:53
04. EPZE 06:15
05. Strolling 04:08
06. Cloud Ballet 03:58
07. Miles From Yesterday 04:37
08. Very Nice 03:38
09. Melody of the Week 03:46
10. Morning Joy 05:42
11. Luigi 05:46

Состав:

Nicola Angelucci
Gabriele Mirabassi
Luca Bulgarelli
Olivia Trummer

Лог проверки качества
foobar2000 1.4.2 / Dynamic Range Meter 1.1.1
log date: 2021-07-16 09:21:53
--------------------------------------------------------------------------------
Analyzed: Nicola Angelucci / Changes (feat. Gabriele Mirabassi, Olivia Trummer, Luca Bulgarelli)
--------------------------------------------------------------------------------
DR         Peak         RMS     Duration Track
--------------------------------------------------------------------------------
DR6        0.00 dB    -8.75 dB      3:08 01-Flowing (feat. Gabriele Mirabassi, Olivia Trummer, Luca Bulgarelli)
DR8       -0.04 dB   -10.10 dB      3:32 02-Tempo libero (feat. Gabriele Mirabassi, Olivia Trummer, Luca Bulgarelli)
DR8       -0.12 dB   -11.55 dB      5:53 03-Love Is a Never Ending Story (feat. Gabriele Mirabassi, Olivia Trummer, Luca Bulgarelli)
DR7        0.00 dB    -9.20 dB      6:15 04-EPZE (feat. Gabriele Mirabassi, Olivia Trummer, Luca Bulgarelli)
DR10       0.00 dB   -12.39 dB      4:09 05-Strolling (feat. Gabriele Mirabassi, Olivia Trummer, Luca Bulgarelli)
DR8       -0.10 dB   -13.38 dB      3:58 06-Cloud Ballet (feat. Gabriele Mirabassi, Olivia Trummer, Luca Bulgarelli)
DR8       -0.11 dB   -10.76 dB      4:37 07-Miles From Yesterday (feat. Gabriele Mirabassi, Olivia Trummer, Luca Bulgarelli)
DR7       -0.01 dB   -10.04 dB      3:38 08-Very Nice (feat. Gabriele Mirabassi, Olivia Trummer, Luca Bulgarelli)
DR8        0.00 dB   -10.80 dB      3:47 09-Melody of the Week (feat. Gabriele Mirabassi, Olivia Trummer, Luca Bulgarelli)
DR7        0.00 dB   -10.26 dB      5:42 10-Morning Joy (feat. Gabriele Mirabassi, Olivia Trummer, Luca Bulgarelli)
DR8       -0.15 dB   -11.32 dB      5:46 11-Luigi (feat. Gabriele Mirabassi, Olivia Trummer, Luca Bulgarelli)
--------------------------------------------------------------------------------
Number of tracks:  11
Official DR value: DR8
Samplerate:        48000 Hz
Channels:          2
Bits per sample:   24
Bitrate:           1666 kbps
Codec:             FLAC
================================================================================
Приватный:
Нет (DHT включён)
Размер:
618.47 Мб (648,516,561 байт) » файлов: 12
Участники:
45 раздают, 0 качают (45 участников всего)
Внешние участники:
3 раздают, 1 качают (4 участников всего) [ Обновить ]
13:47
485
Нет комментариев. Ваш будет первым!