Поиск

1980 Eboni Band - Eboni Band (2021) {We Are Busy Bodies} [24-96]

1980 Eboni Band - Eboni Band (2021) {We Are Busy Bodies} [24-96]
Стили:
Дата переиздания диска:
18 июня 2021
Носитель:
WEB
Формат:
PCM
Тип рипа:
tracks
Контейнер:
FLAC (*.flac)
Количество каналов:
2.0
Разрядность/ЧД:
24/96
Битрейт аудио:
lossless
Время звучания:
00:35:16
Наличие сканов:
только обложка

01 - Sing a Happy Song (Shake It Down) 07:43
02 - Fasso 08:53
03 - Desire 07:03
04 - Mogofindeou-Sopeunte (Get Together) 05:58
05 - I Love All 05:39

Состав:

Drums – Quentin Dennard
Guitar – Wes Blackman
Keyboards – Hiroshi Upshir
Kora – Fode Drame, Lamine Konte
Bass – Sir Gregg Middleton
Saxophone – Ernie Fields, Jr.
Trombone – Fred Wesley
Trumpet – Nolan Smith
Vocals – Bennie Conn, Paula Sills, Mamadou Doumbia, Abdoulaye Soumare, Aisha Koné, Tony Hayes, Art Stewart
Vocals, Guitar – Lamine Doukoure

Лог проверки качества
foobar2000 1.4.3 / Dynamic Range Meter 1.1.1
log date: 2021-07-25 09:19:37
--------------------------------------------------------------------------------
Analyzed: Eboni Band / Eboni Band
--------------------------------------------------------------------------------
DR         Peak         RMS     Duration Track
--------------------------------------------------------------------------------
DR9       -0.10 dB   -10.22 dB      7:43 01-Sing a Happy Song (Shake It Down)
DR9       -0.10 dB   -11.05 dB      8:54 02-Fasso
DR12      -0.10 dB   -13.74 dB      7:03 03-Desire
DR11      -0.10 dB   -11.89 dB      5:58 04-Mogofindeou-Sopeunte (Get Together)
DR10      -0.10 dB   -10.98 dB      5:39 05-I Love All
--------------------------------------------------------------------------------
Number of tracks:  5
Official DR value: DR10
Samplerate:        96000 Hz
Channels:          2
Bits per sample:   24
Bitrate:           2807 kbps
Codec:             FLAC
================================================================================
02:29
410
Нет комментариев. Ваш будет первым!