Поиск

2019 Mike LeDonne - Partners in Time {Savant} [24-44.1]

2019 Mike LeDonne - Partners in Time {Savant} [24-44.1]
Стили:
Дата записи диска:
6 марта 2019
Место записи:
Rudy Van Gelder Recording Studios, Englewood Cliffs, NJ, USA
Дата издания диска:
28 июня 2019
Издатель (лейбл):
Носитель:
WEB
Формат:
PCM
Тип рипа:
tracks
Контейнер:
FLAC (*.flac)
Количество каналов:
2.0
Разрядность/ЧД:
24/44,1
Битрейт аудио:
lossless
Время звучания:
00:53:31
Наличие сканов:
буклет pdf

Треклист:

01 - Lined with a Groove 06:04
02 - My Funny Valentine 06:34
03 - Saud 08:33
04 - Lament 06:47
05 - Recovery Blues 07:30
06 - Here's That Rainy Day 04:37
07 - N.P.S. 07:39
08 - Bopsolete 05:47

Состав:
  •     Acoustic Bass – Christian McBride
  •     Drums – Lewis Nash
  •     Engineer – Maureen Sickler
  •     Mixed By – Maureen Sickler
  •     Piano – Mike LeDonne
  •     Producer – Mike LeDonne
Лог проверки качества
foobar2000 1.3.7 / Dynamic Range Meter 1.1.1
log date: 2019-06-27 23:25:39
--------------------------------------------------------------------------------
Analyzed: Mike LeDonne / Partners in Time
--------------------------------------------------------------------------------
DR         Peak         RMS     Duration Track
--------------------------------------------------------------------------------
DR11      -0.68 dB   -13.39 dB      6:04 01-Lined with a Groove
DR13      -0.68 dB   -14.86 dB      6:34 02-My Funny Valentine
DR10      -0.68 dB   -12.29 dB      8:33 03-Saud
DR12      -0.68 dB   -15.10 dB      6:47 04-Lament
DR12      -0.68 dB   -13.86 dB      7:30 05-Recovery Blues
DR11      -0.68 dB   -13.51 dB      4:37 06-Here's That Rainy Day
DR12      -0.68 dB   -14.01 dB      7:39 07-N.P.S.
DR12      -0.68 dB   -14.97 dB      5:47 08-Bopsolete
--------------------------------------------------------------------------------
Number of tracks:  8
Official DR value: DR12
Samplerate:        44100 Hz
Channels:          2
Bits per sample:   24
Bitrate:           1637 kbps
Codec:             FLAC
================================================================================
По всем вопросам пишите личное сообщение пользователю M0p94ok.
19:47
188
Нет комментариев. Ваш будет первым!