Поиск

2021 Dami Lee - Seasons {DM Music} [24-48]

2021 Dami Lee - Seasons {DM Music} [24-48]
Дата издания диска:
19 июля 2021
Носитель:
WEB
Формат:
PCM
Тип рипа:
tracks
Контейнер:
FLAC (*.flac)
Количество каналов:
2.0
Разрядность/ЧД:
24/48
Битрейт аудио:
lossless
Время звучания:
00:34:30
Наличие сканов:
только обложка

01 - Beginning (02:13)
02 - Spring (04:26)
03 - Summer (03:17)
04 - Autumn (04:08)
05 - Winter (06:14)
06 - Winter (Alternate Take) (06:48)
07 - Note (05:00)
08 - Jon Jae (02:19)

Состав:
  • Dami Lee — vocals
Лог проверки качества
foobar2000 1.4.2 / Dynamic Range Meter 1.1.1
log date: 2021-07-22 11:42:43
--------------------------------------------------------------------------------
Analyzed: Dami Lee / Seasons
--------------------------------------------------------------------------------
DR         Peak         RMS     Duration Track
--------------------------------------------------------------------------------
DR11      -0.20 dB   -15.17 dB      2:14 01-Beginning
DR9       -0.20 dB   -13.43 dB      4:27 02-Spring
DR10      -0.20 dB   -13.71 dB      3:18 03-Summer
DR10      -0.20 dB   -14.77 dB      4:09 04-Autumn
DR13      -0.20 dB   -18.26 dB      6:15 05-Winter
DR11      -0.20 dB   -16.96 dB      6:49 06-Winter (Alternate Take)
DR12      -0.20 dB   -16.63 dB      5:01 07-Note
DR10      -0.20 dB   -13.77 dB      2:19 08-Jon Jae
--------------------------------------------------------------------------------
Number of tracks:  8
Official DR value: DR11
Samplerate:        48000 Hz
Channels:          2
Bits per sample:   24
Bitrate:           1284 kbps
Codec:             FLAC
================================================================================
Приватный:
Нет (DHT включён)
Размер:
355.42 Мб (372,689,739 байт) » файлов: 9
Участники:
0 раздают, 0 качают (0 участников всего)
Внешние участники:
1 раздают, 0 качают (1 участников всего) [ Обновить ]
18:43
508
Нет комментариев. Ваш будет первым!