Поиск

2021 Michael Dease - Give It All You Got {Posi-Tone} [24-88.2]

2021 Michael Dease - Give It All You Got {Posi-Tone} [24-88.2]
Стили:
Дата записи диска:
22 сентября 2019
Место записи:
Acoustic Recording, Brooklyn, NY
Дата издания диска:
26 февраля 2021
Издатель (лейбл):
Носитель:
WEB
Формат:
PCM
Тип рипа:
tracks
Контейнер:
FLAC (*.flac)
Количество каналов:
2.0
Разрядность/ЧД:
24/88,2
Битрейт аудио:
lossless
Время звучания:
00:57:37
Наличие сканов:
только обложка
Страна-производитель диска (релиза):
USA
Релизёр (источник):
latimer
Лог проверки качества
foobar2000 1.4.6 / Dynamic Range Meter 1.1.1
log date: 2021-04-11 21:39:31

--------------------------------------------------------------------------------
Analyzed: Michael Dease / Give It All You Got
--------------------------------------------------------------------------------

DR         Peak         RMS     Duration Track
--------------------------------------------------------------------------------
DR11      -0.98 dB   -13.01 dB      5:48 01-A Sliver Of Silver
DR11      -0.98 dB   -13.65 dB      5:18 02-The Next Level
DR12      -0.98 dB   -14.99 dB      4:58 03-Parker's Fancy
DR11      -0.98 dB   -13.90 dB      5:23 04-Word To The Wise
DR11      -0.98 dB   -13.26 dB      5:58 05-Dave's Boogie-Down
DR11      -0.98 dB   -13.79 dB      6:09 06-Ritmo De Brevard
DR10      -0.98 dB   -12.90 dB      4:57 07-Lake Toxaway Getaway
DR11      -0.98 dB   -13.26 dB      5:58 08-Zanderfied
DR10      -0.98 dB   -13.78 dB      7:05 09-Climb The Mountain
DR11      -0.98 dB   -13.38 dB      6:08 10-Transylvania County Funk Parade
--------------------------------------------------------------------------------

Number of tracks:  10
Official DR value: DR11

Samplerate:        88200 Hz
Channels:          2
Bits per sample:   24
Bitrate:           2821 kbps
Codec:             FLAC
================================================================================
No seeders - write personal message to M0p94ok. Any questions - support@pro-jazz.com.
Нет сидеров - пишите в личку M0p94ok. Есть вопросы - support@pro-jazz.com
23:33
34
Нет комментариев. Ваш будет первым!