Поиск

2014 Jethro Burns - Legacy - Final Sessions with Don Stiernberg {Acoustic Disc} [24-96]

2014 Jethro Burns - Legacy - Final Sessions with Don Stiernberg {Acoustic Disc} [24-96]
Стили:
Носитель:
WEB
Формат:
PCM
Тип рипа:
tracks
Контейнер:
FLAC (*.flac)
Количество каналов:
2.0
Разрядность/ЧД:
24/96
Битрейт аудио:
lossless
Время звучания:
02:54:31
Наличие сканов:
буклет pdf
Релизёр (источник):
acousticdisc.com
Доп. инфо:

Сборник состоит из трёх альбомов, два из которых, "Swing Low, Sweet Mandolin" и "Bye Bye Blues", были выпущены в 90-е годы, а в составе данного сборника представлены в расширенном виде. Третий альбом - "Tater Bug Rag" - издан впервые в составе этого сборника. Материал, представленный в сборнике, был записан в 1987-88 годах Джетро Бёрнсом, у которого незадолго до этого было обнаружено онкологическое заболевание, в качестве своеобразного творческого завещания - коллекции его любимых композиций в собственных аранжировках для мандолины и ритм-гитары. Весь материал был записан Джетро Бёрнсом вживую, без наложений, при помощи его ученика Дона Штирнберга (ставшего впоследствии известным джазовым мандолинистом), который играл на ритм-гитаре. Для записи Бёрнс использовал мандолины Gibson F-5L и Gibson A-5, а Дон Штирнберг - акустические гитары Gibson L-5 и Epiphone Emperor 1938 года выпуска.

Лог проверки качества
foobar2000 1.6.4 / Замер динамического диапазона (DR) 1.1.1
Дата отчёта:  2021-05-19 15:07:22

--------------------------------------------------------------------------------
Анализ:   Jethro Burns & Don Stiernberg / VOLUME 1:  Swing Low, Sweet Mandolin
--------------------------------------------------------------------------------

DR         Пики         RMS           Продолжительность трека
--------------------------------------------------------------------------------
DR14      -0.08 дБ   -17.92 дБ      2:30 01-That's a Plenty
DR16      -0.09 дБ   -21.36 дБ      2:43 02-Estrellita
DR14      -0.30 дБ   -18.04 дБ      2:32 03-Just Friends
DR17      -0.11 дБ   -22.17 дБ      4:30 04-Body and Soul
DR17      -0.31 дБ   -20.78 дБ      2:18 05-If I Had You
DR17      -0.07 дБ   -22.56 дБ      4:00 06-I'll Never Be The Same
DR16      -0.09 дБ   -21.65 дБ      2:16 07-Stella By Starlight
DR16      -0.11 дБ   -21.07 дБ      2:52 08-Fiddleobia
DR16      -0.08 дБ   -21.42 дБ      3:47 09-Golden Earrings
DR16      -0.12 дБ   -21.43 дБ      3:48 10-You Win Again
DR16      -0.18 дБ   -21.00 дБ      2:46 11-Fly Me To The Moon
DR16      -0.17 дБ   -22.02 дБ      2:35 12-Corrina Corrina
DR16      -0.16 дБ   -20.86 дБ      2:24 13-The Shadow of Your Smile
DR15      -0.09 дБ   -19.86 дБ      2:49 14-Smiles
DR17      -0.10 дБ   -23.97 дБ      3:19 15-Solitude
DR17      -0.22 дБ   -20.80 дБ      2:48 16-Swing Low Sweet Chariot
DR15      -1.52 дБ   -20.41 дБ      2:36 17-That's a Plenty - Alternate Take
DR17      -0.09 дБ   -19.96 дБ      3:21 18-Fly Me To The Moon - Alternate Take
DR16      -1.39 дБ   -22.64 дБ      2:32 19-Corrina Corrina - Alternate Take
DR16      -0.09 дБ   -20.70 дБ      2:51 20-Swing Low Sweet Chariot - Alternate Take
--------------------------------------------------------------------------------

Количество треков: 20
Реальные значения DR: DR16

Частота:   96000 Гц
Каналов:   2
Разрядность:   24
Битрейт:   2840 кбит/с
Кодек:   FLAC
================================================================================
No seeders - write personal message to M0p94ok. Any questions - support@pro-jazz.com.
Нет сидеров - пишите в личку M0p94ok. Есть вопросы - support@pro-jazz.com
22:49
27
Нет комментариев. Ваш будет первым!