Поиск

1962 Tubby Hayes Quintet - Down In The Village (2020) {Decca, UMO} [24-88.2]

1962 Tubby Hayes Quintet - Down In The Village (2020) {Decca, UMO} [24-88.2]
Стили:
Дата издания диска:
1 ноября 1962
Дата переиздания диска:
6 марта 2020
Издатель (лейбл):
Носитель:
WEB
Формат:
PCM
Тип рипа:
tracks
Контейнер:
FLAC (*.flac)
Количество каналов:
2.0
Разрядность/ЧД:
24/88,2
Битрейт аудио:
lossless
Время звучания:
00:48:24
Наличие сканов:
только обложка
Страна-производитель диска (релиза):
UK
Релизёр (источник):
latimer
Лог проверки качества
foobar2000 1.4.3 / Dynamic Range Meter 1.1.1
log date: 2021-05-17 18:29:47

--------------------------------------------------------------------------------
Analyzed: Tubby Hayes Quintet / Down In The Village - Live at the Ronnie Scott Club London 1962 (Remastered)
--------------------------------------------------------------------------------

DR         Peak         RMS     Duration Track
--------------------------------------------------------------------------------
DR13      -0.27 dB   -15.92 dB      8:51 01-Johnny One Note
DR12      -5.28 dB   -21.86 dB      7:25 02-But Beautiful
DR12      -0.27 dB   -16.23 dB      8:26 03-The Most Beautiful Girl In The World / Quintet Theme
DR14      -0.27 dB   -17.27 dB     10:57 04-Down In The Village
DR13      -1.21 dB   -18.33 dB      7:33 05-In The Night
DR13      -0.26 dB   -15.84 dB      5:14 06-First Eleven / Quintet Theme
--------------------------------------------------------------------------------

Number of tracks:  6
Official DR value: DR13

Samplerate:        88200 Hz
Channels:          2
Bits per sample:   24
Bitrate:           3030 kbps
Codec:             FLAC
================================================================================
No seeders - write personal message to M0p94ok. Any questions - support@pro-jazz.com.
Нет сидеров - пишите в личку M0p94ok. Есть вопросы - support@pro-jazz.com
19:08
50
Нет комментариев. Ваш будет первым!