Поиск

1963 Tubby Hayes And The All Stars - Return Visit! (2019) {Decca, Fontana} [24-88.2]

1963 Tubby Hayes And The All Stars - Return Visit! (2019) {Decca, Fontana} [24-88.2]
Стили:
Дата записи диска:
23 июня 1962
Место записи:
New York City, NY, USA
Дата переиздания диска:
27 декабря 2019
Издатель (лейбл):
Носитель:
WEB
Формат:
PCM
Тип рипа:
tracks
Контейнер:
FLAC (*.flac)
Количество каналов:
2.0
Разрядность/ЧД:
24/88,2
Битрейт аудио:
lossless
Время звучания:
00:35:59
Наличие сканов:
только обложка
Страна-производитель диска (релиза):
USA
Релизёр (источник):
latimer
Доп. инфо:

Запоздалые рождественские подарки для поклонников великого тенориста британского джаза Табби Хейса, as Universal объявили о прибытии избранных ремастированных альбомов.

Плёнки были в идеальном состоянии и ни разу не воспроизводились с момента записи, и в отчетах говорится, что музыка имеет такой же высокий рейтинг, как классические альбомы Хейса 100% Proof и Mexican Green. Наряду с этим лейбл также обладает всеми оригинальными плёнками 11 альбомов Хейса для Fontana, а также множеством исходных и никогда ранее не издававшихся материалов, которые будут ремастированы и переизданы в одном мощном бокс-сете Табби Хейса на Фонтане.

«Трудно поверить, что эта музыка оставалась неуслышанной пятьдесят лет, она такая свежая», - говорит Спиллетт. «Я не сомневаюсь, что если бы они были выпущены в то время, эти записи были бы замечены как последний великий альбом Табби». (Саймон Спиллетт)

Цифровой ремастеринг

Примечания по мастерингу: Записи были тщательно ремастированы в студии Gearbox Records в Лондоне прямо с оригинальных плёнок с использованием ¼-дюймового стереофонического магнитофона Studer C37. Затем они были уравновешены с помощью полностью лампового пульта мастеринга, сделанного на заказ для студий Decca в конце 1950-х годов, с помощью ламповых лимитеров Vintage Lang Pultec EQ, Prism Maselec EQ и Telefunken U73b 1959 года.

Лог проверки качества
foobar2000 1.4.3 / Dynamic Range Meter 1.1.1
log date: 2021-05-16 07:33:01

--------------------------------------------------------------------------------
Analyzed: Tubby Hayes And The All Stars / Return Visit!
--------------------------------------------------------------------------------

DR         Peak         RMS     Duration Track
--------------------------------------------------------------------------------
DR11      -3.83 dB   -17.16 dB      5:48 01-Afternoon In Paris
DR12      -0.47 dB   -16.91 dB      9:31 02-I See With My Third 'I'
DR11      -2.77 dB   -16.44 dB      3:19 03-Lady 'E'
DR12      -2.65 dB   -16.00 dB      9:54 04-Stitt's Tune
DR13      -2.33 dB   -18.24 dB      7:31 05-Medley: If I Had You / Alone Together / For Heaven's Sake
--------------------------------------------------------------------------------

Number of tracks:  5
Official DR value: DR12

Samplerate:        88200 Hz
Channels:          2
Bits per sample:   24
Bitrate:           2689 kbps
Codec:             FLAC
================================================================================
No seeders - write personal message to M0p94ok. Any questions - support@pro-jazz.com.
Нет сидеров - пишите в личку M0p94ok. Есть вопросы - support@pro-jazz.com
08:13
39
Нет комментариев. Ваш будет первым!