Поиск

2016 Kálmán Oláh, Andrea Malek - The Michel Legrand Songbook {Hunnia} [24-96]

2016 Kálmán Oláh, Andrea Malek - The Michel Legrand Songbook {Hunnia} [24-96]
Стили:
Дата издания диска:
10 сентября 2016
Носитель:
WEB
Формат:
PCM
Тип рипа:
tracks
Контейнер:
FLAC (*.flac)
Количество каналов:
2.0
Разрядность/ЧД:
24/96
Битрейт аудио:
lossless
Время звучания:
01:12:49
Наличие сканов:
буклет pdf
Страна-производитель диска (релиза):
USA
Релизёр (источник):
Stephenten
Доп. инфо:

"Я думал о проекте по произведениям Мишеля Леграна около 15 лет. Для реализации моей мечты нужно было многое. Больше всего мне нужна была отличная певица, которая могла бы исполнить эти песни достоверно, но по-своему. Мне нужно было очень креативное и разностороннее джазовое трио, которое было бы основой постановки. Мне нужен был струнный камерный оркестр, играющий на высоком уровне. Мне были нужны выдающиеся солисты, способные расширить цветовую палитру диска своей уникальной музыкальной индивидуальностью. И, конечно же, мне нужно было вдохновение для оркестровок, помимо того вдохновения, которое дали мне песни Леграна. С одной стороны, вдохновение я черпал во время путешествий, когда сочинял эти каверы в нескольких городах Европы. С другой стороны, у меня появилось много идей за последние 25 лет погружения в классическую музыку, и я также получил много вдохновения от музыки Баха. В музыке Леграна спрятан Бах, поэтому использовать мотивы барокко для меня не составляло труда. Однако в этих песнях есть много других возможностей, которые можно развернуть в нескольких музыкальных направлениях. Я думаю, что, несмотря на разнообразное музыкальное звучание альбома, индивидуальность Леграна и сразу узнаваемые мелодии делают производство единым". (Кальман Олах)

https://www.highresaudio.com/en/album/view/5k5i7u/ka-lma-n-ola-h-andrea-malek-trio-midnight-danubia-orchestra-buda-roby-lakatos-the-michel-legrand-songbook

Лог проверки качества
foobar2000 1.4.8 / Dynamic Range Meter 1.1.1
log date: 2021-05-21 11:19:48

--------------------------------------------------------------------------------
Analyzed: Kálmán Oláh, Andrea Malek, Trio Midnight, Danubia Orchestra Óbuda, Roby Lakatos / The Michel Legrand Songbook
--------------------------------------------------------------------------------

DR         Peak         RMS     Duration Track
--------------------------------------------------------------------------------
DR9        0.00 dB   -11.54 dB      5:17 01-The Summer Knows
DR8       -0.02 dB   -11.32 dB     10:20 02-Windmills of Your Mind
DR6        0.00 dB    -8.49 dB      6:52 03-A Piece of Sky
DR10      -0.06 dB   -12.20 dB      5:22 04-Once Upon A Summertime
DR8        0.00 dB   -11.27 dB     11:06 05-Where Is It Written
DR8       -0.04 dB   -10.75 dB      5:47 06-You Must Believe in Spring
DR8       -0.04 dB   -11.15 dB      7:49 07-What Are You Doing the Rest of Your Life
DR9       -0.14 dB   -12.84 dB      5:47 08-The Way He Makes Me Feel
DR8        0.00 dB   -10.26 dB      5:26 09-How Do You Keep the Music Playing?
DR10       0.00 dB   -12.34 dB      4:55 10-Watch What Happens
DR8       -0.10 dB   -12.75 dB      4:08 11-No Matter What Happens
--------------------------------------------------------------------------------

Number of tracks:  11
Official DR value: DR9
Samplerate:        96000 Hz
Channels:          2
Bits per sample:   24
Bitrate:           2686 kbps
Codec:             FLAC
================================================================================
No seeders - write personal message to M0p94ok. Any questions - support@pro-jazz.com.
Нет сидеров - пишите в личку M0p94ok. Есть вопросы - support@pro-jazz.com
09:03
31
Нет комментариев. Ваш будет первым!