Поиск

2021 Meredith d'Ambrosio - Sometime Ago {Sunnyside} [24-48]

2021 Meredith d'Ambrosio - Sometime Ago {Sunnyside} [24-48]
Стили:
Дата издания диска:
14 мая 2021
Издатель (лейбл):
Битрейт аудио:
lossless

01. When Springtime Turns To Fall (6:30)
02. Feast Your Eyes (5:45)
03. Moonlight (6:16)
04. Sometime Ago (4:58)
05. May I Come In (5:16)
06. I Wished On The Moon (4:27)
07. My Open Heart (4:10)
08. I Remember You (5:12)
09. Oh Well, What The Hell (5:03)
10. If I Should Lose You (5:09)

Состав:
  • Meredith d'Ambrosio — vocals
  • Randy Halberstadt — piano
  • Daryl Johns — bass
  • Steve Johns — drums
  • Don Sickler — flugelhorn (4) & muted trumpet (9)
Лог проверки качества
foobar2000 1.4.8 / Dynamic Range Meter 1.1.1
log date: 2021-05-14 15:26:51

--------------------------------------------------------------------------------
Analyzed: Meredith d'Ambrosio / Sometime Ago
--------------------------------------------------------------------------------

DR         Peak         RMS     Duration Track
--------------------------------------------------------------------------------
DR13      -3.64 dB   -20.33 dB      6:30 01-When Springtime Turns To Fall
DR12      -2.77 dB   -17.65 dB      5:45 02-Feast Your Eyes
DR13      -4.01 dB   -20.21 dB      6:16 03-Moonlight
DR11      -4.65 dB   -19.24 dB      4:58 04-Sometime Ago
DR11      -4.27 dB   -19.66 dB      5:16 05-May I Come In
DR12      -3.28 dB   -18.08 dB      4:27 06-I Wished On The Moon
DR12      -4.44 dB   -18.86 dB      4:10 07-My Open Heart
DR12      -2.55 dB   -18.34 dB      5:12 08-I Remember You
DR12      -3.41 dB   -18.91 dB      5:03 09-Oh Well, What The Hell
DR13      -3.15 dB   -18.65 dB      5:09 10-If I Should Lose You
--------------------------------------------------------------------------------

Number of tracks:  10
Official DR value: DR12
Samplerate:        48000 Hz
Channels:          2
Bits per sample:   24
Bitrate:           1532 kbps
Codec:             FLAC
================================================================================
18:51
645
Нет комментариев. Ваш будет первым!