Поиск

1979 Hank Jones Trio - Have You Met This Jones (2014) {MPS} [24-88.2]

1979 Hank Jones Trio - Have You Met This Jones (2014) {MPS} [24-88.2]
Стили:
Дата записи диска:
1 августа - 2 августа 1977
Место записи:
MPS Studio, Villingen
Дата издания диска:
18 марта 1979
Издатель (лейбл):
Носитель:
WEB
Формат:
PCM
Тип рипа:
tracks
Контейнер:
FLAC (*.flac)
Количество каналов:
2.0
Разрядность/ЧД:
24/88,2
Битрейт аудио:
lossless
Время звучания:
00:44:24
Наличие сканов:
только обложка
Страна-производитель диска (релиза):
USA
Релизёр (источник):
M0p94ok
Лог проверки качества
foobar2000 1.6.2 / Dynamic Range Meter 1.1.1
log date: 2021-08-12 20:57:26

--------------------------------------------------------------------------------
Analyzed: Hank Jones Trio / Have You Met This Jones?
--------------------------------------------------------------------------------

DR         Peak         RMS     Duration Track
--------------------------------------------------------------------------------
DR12      -0.75 dB   -15.22 dB      5:04 01-There's a Small Hotel
DR12      -1.76 dB   -17.07 dB      7:38 02-Portions
DR12      -1.32 dB   -15.65 dB      4:24 03-The Oregon Grinder
DR12      -1.69 dB   -17.34 dB      5:12 04-I Got It Bad and That Ain't Good
DR11      -0.75 dB   -16.21 dB      5:46 05-We're All Together
DR11      -1.71 dB   -16.12 dB      4:34 06-Like Someone In Love
DR12      -0.77 dB   -15.77 dB      5:19 07-Now's the Time
DR12      -1.16 dB   -15.93 dB      6:28 08-Robbins Nest
--------------------------------------------------------------------------------

Number of tracks:  8
Official DR value: DR11

Samplerate:        88200 Hz
Channels:          2
Bits per sample:   24
Bitrate:           2581 kbps
Codec:             FLAC
================================================================================
No seeders - write personal message to M0p94ok. Any questions - support@pro-jazz.com.
Нет сидеров - пишите в личку M0p94ok. Есть вопросы - support@pro-jazz.com
21:09
136
21:09
+1