Поиск

2021 Gabriel Vicéns - The Way We Are Created {Gabriel Vicéns} [24-96]

2021 Gabriel Vicéns - The Way We Are Created {Gabriel Vicéns} [24-96]
Дата записи диска:
1 мая - 30 мая 2019
Место записи:
Big Orange Sheep, New York City, NY, USA
Дата издания диска:
15 января 2021
Битрейт аудио:
lossless
Доп. инфо:

Формат записи/Источник записи: [TR24][OF]
Наличие водяных знаков: Нет
Год издания/переиздания диска: 2021
Издатель (лейбл): Gabriel Vicéns
Продолжительность: 00:54:15
Наличие сканов в содержимом раздачи: Только обложка альбома
Контейнер: FLAC (*.flac)
Тип рипа: tracks
Разрядность: 24/96
Формат: PCM
Количество каналов: 2.0

Источник (релизер): bandcamp

Лог проверки качества
foobar2000 1.6.2 / Dynamic Range Meter 1.1.1
log date: 2021-05-14 11:12:36

--------------------------------------------------------------------------------
Analyzed: Gabriel Vicéns / The Way We Are Created
--------------------------------------------------------------------------------

DR         Peak         RMS     Duration Track
--------------------------------------------------------------------------------
DR8       -0.20 dB   -10.62 dB      9:05 01-The Way We Are Created
DR8       -0.20 dB   -10.70 dB      6:46 02-It Doesn't Matter
DR12      -0.20 dB   -15.87 dB      1:51 03-Caribeño Pensador
DR8       -0.20 dB   -10.90 dB      6:13 04-The Upcoming
DR8       -0.20 dB   -11.23 dB      6:40 05-A City of Many Mysteries
DR12      -0.20 dB   -16.08 dB      1:39 06-Fuera de mi Cuerpo
DR8       -0.20 dB   -10.10 dB      5:28 07-Definite Purpose
DR9       -0.20 dB   -11.57 dB      7:24 08-To the Unknown
DR10      -0.20 dB   -13.04 dB      1:47 09-Retorno
DR9       -0.20 dB   -11.40 dB      7:21 10-The Mystery of S.T.
--------------------------------------------------------------------------------

Number of tracks:  10
Official DR value: DR9

Samplerate:        96000 Hz
Channels:          2
Bits per sample:   24
Bitrate:           2930 kbps
Codec:             FLAC
================================================================================
No seeders - write personal message to M0p94ok. Any questions - support@pro-jazz.com.
Нет сидеров - пишите в личку M0p94ok. Есть вопросы - support@pro-jazz.com
19:03
82
Нет комментариев. Ваш будет первым!