Поиск

1973 Gato Barbieri - Bolivia (2016) {Ace} [24-96]

1973 Gato Barbieri - Bolivia (2016) {Ace} [24-96]
Стили:
Дата переиздания диска:
24 июня 2016
Носитель:
WEB
Формат:
PCM
Тип рипа:
tracks
Контейнер:
FLAC (*.flac)
Количество каналов:
2.0
Разрядность/ЧД:
24/96
Битрейт аудио:
lossless
Время звучания:
00:36:31
Наличие сканов:
только обложка
Страна-производитель диска (релиза):
Argentina
Релизёр (источник):
latimer
Лог проверки качества
foobar2000 1.4.3 / Dynamic Range Meter 1.1.1
log date: 2021-05-14 03:43:43

--------------------------------------------------------------------------------
Analyzed: Gato Barbieri / Bolivia
--------------------------------------------------------------------------------

DR         Peak         RMS     Duration Track
--------------------------------------------------------------------------------
DR12      -1.71 dB   -16.44 dB      9:17 01-Merceditas
DR11      -4.29 dB   -17.70 dB      6:24 02-Eclypse / Michellina
DR11      -3.77 dB   -17.31 dB      7:55 03-Bolivia
DR13      -2.54 dB   -18.03 dB      7:18 04-Ninos
DR12      -2.81 dB   -17.60 dB      5:41 05-Vidala Triste
--------------------------------------------------------------------------------

Number of tracks:  5
Official DR value: DR12

Samplerate:        96000 Hz
Channels:          2
Bits per sample:   24
Bitrate:           2806 kbps
Codec:             FLAC
================================================================================
No seeders - write personal message to M0p94ok. Any questions - support@pro-jazz.com.
Нет сидеров - пишите в личку M0p94ok. Есть вопросы - support@pro-jazz.com
18:42
42
Нет комментариев. Ваш будет первым!