Поиск

1961 Chris Connor & Maynard Ferguson - Double Exposure (2019) {RevOla} [24-44.1]

1961 Chris Connor & Maynard Ferguson - Double Exposure (2019) {RevOla} [24-44.1]
Издатель (лейбл):
Носитель:
WEB
Формат:
PCM
Тип рипа:
tracks
Контейнер:
FLAC (*.flac)
Количество каналов:
2.0
Разрядность/ЧД:
24/44,1
Битрейт аудио:
lossless
Время звучания:
00:35:59
Наличие сканов:
только обложка
Страна-производитель диска (релиза):
USA
Релизёр (источник):
latimer
Доп. инфо:

Певица Крис Коннор приближалась к концу своих атлантических лет (которые на самом деле были ее расцветом), когда она записала этот интересный, если не совсем классический сет с оркестром Мейнарда Фергюсона, последний раз переизданный на LP 1984 года. За исключением трубачей Фергюсона, здесь мало значимых соло, и биг-бэнд в основном выступает как ансамбль. И Коннор, и MF были выпускниками Кентона, и бывают моменты, когда оркестр напоминает оркестр той группы, но основное внимание уделяется певцу. Она находится в особенно прекрасной форме на «У меня есть глаза только на тебя», «Это никогда не приходило мне в голову», «Весна действительно может повесить тебя больше всего» и «Одинокая дорога», хотя хотелось бы, чтобы было больше взаимодействия с оркестр.

Лог проверки качества
foobar2000 1.4.3 / Dynamic Range Meter 1.1.1
log date: 2021-05-04 23:56:35

--------------------------------------------------------------------------------
Analyzed: Chris Connor / Double Exposure
--------------------------------------------------------------------------------

DR         Peak         RMS     Duration Track
--------------------------------------------------------------------------------
DR12      -2.77 dB   -19.90 dB      3:12 01-Summertime
DR13      -5.29 dB   -21.22 dB      2:35 02-I Only Have Eyes For You
DR12      -5.96 dB   -22.93 dB      5:06 03-It Never Entered My Mind
DR13      -2.23 dB   -19.56 dB      2:37 04-Two Ladies In De Shade Of De Banana Tree
DR12      -6.05 dB   -22.40 dB      4:13 05-Spring Can Really Hang You Up The Most
DR13      -3.83 dB   -21.40 dB      4:22 06-The Lonesome Road
DR13      -5.09 dB   -21.42 dB      2:46 07-All The Things You Are
DR14      -5.63 dB   -22.89 dB      3:38 08-Black Coffee
DR12      -7.12 dB   -23.33 dB      4:24 09-Happy New Year
DR13      -5.58 dB   -22.15 dB      3:11 10-That's How It Went, All Right
--------------------------------------------------------------------------------

Number of tracks:  10
Official DR value: DR13

Samplerate:        44100 Hz
Channels:          2
Bits per sample:   24
Bitrate:           1450 kbps
Codec:             FLAC
================================================================================
No seeders - write personal message to M0p94ok. Any questions - support@pro-jazz.com.
Нет сидеров - пишите в личку M0p94ok. Есть вопросы - support@pro-jazz.com
21:12
28
Нет комментариев. Ваш будет первым!