Поиск

2021 Markus Stockhausen Group - Tales {O-tone} [24-44.1]

2021 Markus Stockhausen Group - Tales {O-tone} [24-44.1]
Дата издания диска:
27 августа 2021
Носитель:
WEB
Формат:
PCM
Тип рипа:
tracks
Контейнер:
FLAC (*.flac)
Количество каналов:
2.0
Разрядность/ЧД:
24/44,1
Битрейт аудио:
lossless
Время звучания:
03:03:20
Наличие сканов:
только обложка

Треклист:

01. Sunday Morning (08:49)
02. A Smile (05:47)
03. Shades of Bliss (05:25)
04. Better World (08:10)
05. Not in Vain (05:12)
06. To See (06:48)
07. Flow (07:46)
08. There Is Always Hope (07:07)
09. Destiny (09:01)
10. Guideline (07:04)
11. Blossom (06:44)
12. Cape Verde (09:45)
13. Little Prayer (02:42)
14. Through the Mist (05:21)
15. Essentials (02:54)
16. Clearing (10:03)
17. Transformation (15:11)
18. Gathering (06:43)
19. Nice Joerg (07:38)
20. Sounds of Hope (05:57)
21. Longing (08:20)
22. Simple Tale (03:13)
23. Bright Side (04:09)
24. Late Dance (06:14)
25. Peace Is Possible (17:17)

Состав:
  • Markus Stockhausen: flh, tp
  • Jörg Brinkmann: cello
  • Jeroen van Vliet: piano, synth
  • Christian Thomé: drums
Лог проверки качества
foobar2000 1.2.2 / Замер динамического диапазона (DR) 1.1.1
Дата отчёта:  2021-09-03 20:15:37
--------------------------------------------------------------------------------
Анализ:   Markus Stockhausen Group / Tales
--------------------------------------------------------------------------------
DR         Пики         RMS           Продолжительность трека
--------------------------------------------------------------------------------
DR11      -1.00 дБ   -15.33 дБ      8:49 ?-Sunday Morning
DR11      -1.00 дБ   -15.02 дБ      5:47 ?-A Smile
DR11      -1.46 дБ   -16.89 дБ      5:25 ?-Shades of Bliss
DR10      -1.00 дБ   -14.33 дБ      8:11 ?-Better World
DR11      -1.00 дБ   -15.58 дБ      5:12 ?-Not in Vain
DR9       -1.00 дБ   -13.47 дБ      6:49 ?-To See
DR9       -1.00 дБ   -14.28 дБ      7:47 ?-Flow
DR12      -2.05 дБ   -17.22 дБ      7:08 ?-There Is Always Hope
DR9       -1.00 дБ   -13.95 дБ      9:02 ?-Destiny
DR10      -1.00 дБ   -15.08 дБ      7:04 ?-Guideline
DR8       -1.00 дБ   -13.81 дБ      6:44 ?-Blossom
DR10      -1.00 дБ   -16.14 дБ      9:45 ?-Cape Verde
DR9       -1.00 дБ   -13.29 дБ      2:42 ?-Little Prayer
DR10      -1.00 дБ   -15.53 дБ      5:22 ?-Through the Mist
DR14      -1.00 дБ   -21.72 дБ      2:54 ?-Essentials
DR9       -1.00 дБ   -13.84 дБ     10:03 ?-Clearing
DR12      -1.00 дБ   -16.47 дБ     15:11 ?-Transformation
DR11      -1.00 дБ   -16.67 дБ      6:43 ?-Gathering
DR8       -1.00 дБ   -13.66 дБ      7:39 ?-Nice Joerg
DR9       -1.00 дБ   -14.32 дБ      5:58 ?-Sounds of Hope
DR8       -1.00 дБ   -13.68 дБ      8:21 ?-Longing
DR10      -1.23 дБ   -16.60 дБ      3:14 ?-Simple Tale
DR12      -1.01 дБ   -16.99 дБ      4:09 ?-Bright Side
DR10      -1.00 дБ   -15.17 дБ      6:14 ?-Late Dance
DR12      -1.00 дБ   -17.30 дБ     17:17 ?-Peace Is Possible
--------------------------------------------------------------------------------
Количество треков: 25
Реальные значения DR: DR10
Частота:   44100 Гц
Каналов:   2
Разрядность:   24
Битрейт:   1253 кбит/с
Кодек:   FLAC
================================================================================
Download available for power users only.
To become a power user - read FAQ.
13:43
227
Нет комментариев. Ваш будет первым!