Поиск

2015 Andre Leroux - Synchronie-Cites {Effendi} [24-88.2]

2015 Andre Leroux - Synchronie-Cites {Effendi} [24-88.2]
Стили:
Дата записи диска:
6 июня - 8 июня 2014
Место записи:
Studio Piccolo
Дата издания диска:
10 марта 2015
Носитель:
WEB
Формат:
PCM
Тип рипа:
tracks
Контейнер:
FLAC (*.flac)
Количество каналов:
2.0
Разрядность/ЧД:
24/88,2
Битрейт аудио:
lossless
Время звучания:
01:00:49
Наличие сканов:
только обложка

✧ 01 - Inner Space Boss (00:07:42)
✧ 02 - Ejecta (00:04:26)
✧ 03 - Undertaking (00:07:34)
✧ 04 - Escales (00:10:22)
✧ 05 - Serie noire (00:05:00)
✧ 06 - Tom petit Tom Moriss (00:09:32)
✧ 07 - Synchronicite (00:04:07)
✧ 08 - Satiete distincte (00:04:40)
✧ 09 - Outer Space Boss (00:07:22)

Состав:
  • Muhammad Abdul Al-Khabyyr     Trombone
  • Frédéric Alaire     Bass (Acoustic)
  • Alain Bédard     Producer, Production Manager
  • Benoît Charest     Composer, Guitar
  • Michel Dupuis     Liner Notes
  • James Gelfand     Composer, Piano
  • Christian Lajoie     Drums
  • André Leroux     Clarinet (Bass), Composer, Producer, Sax (Tenor)
  • Pierre Messier     Engineer, Mixing
  • Carl Talbot     Mastering
Лог проверки качества
foobar2000 1.4.2 / Dynamic Range Meter 1.1.1
log date: 2021-09-12 12:08:59
--------------------------------------------------------------------------------
Analyzed: André Leroux / Synchronie-Cités (feat. Frédéric Alarie, Muhammad Abdul Al-Khabyyr, Benoit Charest, James Gelfand & Christian Lajoie)
--------------------------------------------------------------------------------
DR         Peak         RMS     Duration Track
--------------------------------------------------------------------------------
DR12      -0.81 dB   -15.93 dB      7:43 01-Inner Space Boss
DR14      -0.81 dB   -17.47 dB      4:26 02-Ejecta
DR13      -0.81 dB   -17.11 dB      7:34 03-Undertaking
DR10      -0.81 dB   -14.75 dB     10:23 04-Escales
DR12      -0.81 dB   -16.69 dB      5:00 05-Série noire
DR11      -0.81 dB   -14.79 dB      9:33 06-Tom petit Tom Moriss
DR12      -1.08 dB   -17.10 dB      4:07 07-Synchronicité
DR12      -0.81 dB   -16.07 dB      4:41 08-Satiété distincte
DR12      -0.81 dB   -15.67 dB      7:22 09-Outer Space Boss
--------------------------------------------------------------------------------
Number of tracks:  9
Official DR value: DR12
Samplerate:        88200 Hz
Channels:          2
Bits per sample:   24
Bitrate:           2792 kbps
Codec:             FLAC
================================================================================
Приватный:
Нет (DHT включён)
Размер:
1.18 Гб (1,261,997,538 байт) » файлов: 10
Участники:
0 раздают, 0 качают (0 участников всего)
Внешние участники:
2 раздают, 1 качают (3 участников всего) [ Обновить ]
12:48
396
Нет комментариев. Ваш будет первым!