Поиск

1957 The Paul Bley Quartet - Solemn Meditation (2021) {RevOla} [24-96]

1957 The Paul Bley Quartet - Solemn Meditation (2021) {RevOla} [24-96]
Дата записи диска:
2 ноября 1956 - 21 августа 1957
Издатель (лейбл):
Носитель:
WEB
Формат:
PCM
Тип рипа:
tracks
Контейнер:
FLAC (*.flac)
Количество каналов:
2.0
Разрядность/ЧД:
24/96
Битрейт аудио:
lossless
Время звучания:
01:19:57
Наличие сканов:
только обложка

✧ 01 - Birk's Works (00:06:03)
✧ 02 - O Plus One (00:03:17)
✧ 03 - Porgy (00:03:40)
✧ 04 - Solemn Meditation (00:03:34)
✧ 05 - I Remember Harlem (00:03:42)
✧ 06 - Drum Two (00:03:06)
✧ 07 - Everywhere (00:04:04)
✧ 08 - Beau Diddley (00:05:33)
✧ 09 - Persian Village (00:03:28)
✧ 10 - Triangle (00:03:25)
✧ 11 - Valse Hot (00:04:20)
✧ 12 - Lullaby Of The Leaves (00:04:36)
✧ 13 - You Go To My Head (00:05:07)
✧ 14 - For The Love Of Pike (00:03:33)
✧ 15 - Goody Speaks (00:03:47)
✧ 16 - Polynesia (00:03:29)
✧ 17 - I'll Remember April (00:05:27)
✧ 18 - Willow Weep For Me (00:03:53)
✧ 19 - Pike's Peak (00:05:45)

Состав:
  •     Bass – Charlie Haden
  •     Drums – Lennie McBrowne*
  •     Liner Notes – Carla Borg
  •     Piano – Paul Bley
  •     Vibraphone – Dave Pike
Лог проверки качества
foobar2000 1.4.2 / Dynamic Range Meter 1.1.1
log date: 2021-09-12 12:00:47
--------------------------------------------------------------------------------
Analyzed: The Paul Bley Quartet / Solemn Meditation
--------------------------------------------------------------------------------
DR         Peak         RMS     Duration Track
--------------------------------------------------------------------------------
DR12      -1.30 dB   -16.91 dB      6:04 01-Birk's Works
DR13       0.00 dB   -17.70 dB      3:17 02-O Plus One
DR13       0.00 dB   -20.63 dB      3:40 03-Porgy
DR13      -0.66 dB   -16.33 dB      3:34 04-Solemn Meditation
DR13      -1.73 dB   -18.51 dB      3:42 05-I Remember Harlem
DR12       0.00 dB   -15.21 dB      3:06 06-Drum Two
DR14      -0.38 dB   -18.59 dB      4:04 07-Everywhere
DR13       0.00 dB   -15.89 dB      5:34 08-Beau Diddley
DR13      -1.83 dB   -19.63 dB      3:29 09-Persian Village
DR10      -1.66 dB   -14.81 dB      3:25 10-Triangle
DR11      -1.97 dB   -15.91 dB      4:21 11-Valse Hot
DR11      -1.64 dB   -13.85 dB      4:37 12-Lullaby Of The Leaves
DR12      -1.50 dB   -16.33 dB      5:08 13-You Go To My Head
DR10      -1.09 dB   -13.38 dB      3:33 14-For The Love Of Pike
DR12      -2.76 dB   -16.49 dB      3:47 15-Goody Speaks
DR12      -0.30 dB   -14.57 dB      3:29 16-Polynesia
DR11      -1.45 dB   -14.21 dB      5:28 17-I'll Remember April
DR12      -0.02 dB   -14.86 dB      3:53 18-Willow Weep For Me
DR11      -2.48 dB   -16.49 dB      5:45 19-Pike's Peak
--------------------------------------------------------------------------------
Number of tracks:  19
Official DR value: DR12
Samplerate:        96000 Hz
Channels:          2
Bits per sample:   24
Bitrate:           1645 kbps
Codec:             FLAC
================================================================================
Приватный:
Нет (DHT включён)
Размер:
1.14 Гб (1,228,697,179 байт) » файлов: 20
Участники:
4 раздают, 0 качают (4 участников всего)
Внешние участники:
2 раздают, 1 качают (3 участников всего) [ Обновить ]
11:12
389
Нет комментариев. Ваш будет первым!