Поиск

2021 Mario Pavone, Dialect Trio +1 - Blue Vertical {Out Of Your Head} [24-44.1]

2021 Mario Pavone, Dialect Trio +1 - Blue Vertical {Out Of Your Head} [24-44.1]
Дата записи диска:
25 марта - 26 марта 2021
Место записи:
Samurai Hotel Studio, Astoria, Queens, New York City, NY, USA
Дата издания диска:
18 июня 2021
Носитель:
WEB
Формат:
PCM
Тип рипа:
tracks
Контейнер:
FLAC (*.flac)
Количество каналов:
2.0
Разрядность/ЧД:
24/44,1
Битрейт аудио:
lossless
Время звучания:
01:01:43
Наличие сканов:
только обложка

Треклист:

01. Twardzik 06:48
02. OKWA 07:32
03. Blue Poles 05:52
04. Isabella 07:56
05. Philosophy Series 07:37
06. Blue Vertical 05:20
07. Good Treble 05:33
08. Legacy Stories 06:53
09. Face Music 08:09

Состав:

Mario Pavone — bass, compositions
Dave Ballou — trumpet, arrangements
Matt Mitchell — piano
Tyshawn Sorey — drums

Produced by Mario Pavone.
All arrangements by Dave Ballou.
Recorded by Dave Stollar
Mixed by Ed Tetreault. Mastered by Michael MacDonald at AlgoRhythms Mastering.

Лог проверки качества
foobar2000 1.3.9 / Dynamic Range Meter 1.1.1
log date: 2021-07-18 22:42:52

--------------------------------------------------------------------------------
Analyzed: Mario Pavone / Dialect Trio +1 / Blue Vertical
--------------------------------------------------------------------------------

DR         Peak         RMS     Duration Track
--------------------------------------------------------------------------------
DR13      -1.26 dB   -15.74 dB      6:48 1-Twardzik
DR12      -1.17 dB   -15.93 dB      7:33 2-OKWA
DR12      -1.18 dB   -15.91 dB      5:53 3-Blue Poles
DR12      -1.26 dB   -17.31 dB      7:56 4-Isabella
DR12      -1.16 dB   -15.35 dB      7:37 5-Philosophy Series
DR13      -1.26 dB   -18.23 dB      5:20 6-Blue Vertical
DR13      -1.24 dB   -16.15 dB      5:33 7-Good Treble
DR12      -1.17 dB   -15.85 dB      6:53 8-Legacy Stories
DR12      -1.24 dB   -19.19 dB      8:10 9-Face Music
--------------------------------------------------------------------------------

Number of tracks:  9
Official DR value: DR12

Samplerate:        44100 Hz
Channels:          2
Bits per sample:   24
Bitrate:           1289 kbps
Codec:             FLAC
================================================================================
По всем вопросам пишите личное сообщение пользователю M0p94ok.
23:18
292
Нет комментариев. Ваш будет первым!