Поиск

2021 Chris Connor - All About Ronnie: Recordings 1953-55 Vol. 1 {RevOla} [24-44.1]

2021 Chris Connor - All About Ronnie: Recordings 1953-55 Vol. 1 {RevOla} [24-44.1]
Стили:
Издатель (лейбл):
Носитель:
WEB
Формат:
PCM
Тип рипа:
tracks
Контейнер:
FLAC (*.flac)
Количество каналов:
2.0
Разрядность/ЧД:
24/44,1
Битрейт аудио:
lossless
Время звучания:
00:49:18
Наличие сканов:
только обложка
Треклист:

01 - Blue Silhouette 02:45
02 - Miser's Serenade (Mad Miser Man) 02:45
03 - Ask Me 02:45
04 - Chiquita From Chi-Wah-Wah 02:48
05 - Ev'rything I Love 02:17
06 - Indian Summer 02:56
07 - What Is There To Say? 02:52
08 - I Hear Music 02:20
09 - Come Back To Sorrento 02:46
10 - Why Shouldn't I? 02:45
11 - Try a Little Tenderness 03:04
12 - Lullaby of Birdland 02:24
13 - All About Ronnie 02:59
14 - Spring Is Here 02:55
15 - Out Of This World 02:56
16 - Lush Life 02:54
17 - A Cottage For Sale 02:35
18 - How Long Has This Been Going On? 02:32

Состав:
Лог проверки качества
foobar2000 1.4.6 / Dynamic Range Meter 1.1.1
log date: 2021-07-13 20:22:37

--------------------------------------------------------------------------------
Analyzed: Chris Connor / All About Ronnie: Recordings 1953-55  Vol. 1
--------------------------------------------------------------------------------

DR         Peak         RMS     Duration Track
--------------------------------------------------------------------------------
DR12       0.00 dB   -13.70 dB      2:45 01-Blue Silhouette (Remastered)
DR10      -0.48 dB   -12.06 dB      2:46 02-Miser's Serenade (Mad Miser Man) (Remastered)
DR11       0.00 dB   -12.99 dB      2:46 03-Ask Me (Remastered)
DR11       0.00 dB   -11.98 dB      2:48 04-Chiquita From Chi-Wah-Wah (Remastered)
DR10      -0.47 dB   -11.65 dB      2:18 05-Ev'rything I Love (Remastered)
DR11      -0.01 dB   -13.71 dB      2:57 06-Indian Summer (Remastered)
DR11      -0.02 dB   -14.07 dB      2:53 07-What Is There To Say? (Remastered)
DR12       0.00 dB   -12.97 dB      2:20 08-I Hear Music (Remastered)
DR11      -0.47 dB   -13.72 dB      2:46 09-Come Back To Sorrento (Remastered)
DR11      -0.99 dB   -14.38 dB      2:46 10-Why Shouldn't I? (Remastered)
DR11      -2.00 dB   -14.65 dB      3:04 11-Try a Little Tenderness (Remastered)
DR12      -0.01 dB   -13.91 dB      2:24 12-Lullaby of Birdland (Remastered)
DR11       0.00 dB   -12.80 dB      2:59 13-All About Ronnie (Remastered)
DR10       0.00 dB   -13.40 dB      2:56 14-Spring Is Here (Remastered)
DR11       0.00 dB   -12.77 dB      2:56 15-Out Of This World (Remastered)
DR12      -0.03 dB   -14.77 dB      2:55 16-Lush Life (Remastered)
DR11      -0.01 dB   -13.83 dB      2:36 17-A Cottage For Sale (Remastered)
DR11       0.00 dB   -12.88 dB      2:33 18-How Long Has This Been Going On? (Remastered)
--------------------------------------------------------------------------------

Number of tracks:  18
Official DR value: DR11

Samplerate:        44100 Hz
Channels:          2
Bits per sample:   24
Bitrate:           1294 kbps
Codec:             FLAC
================================================================================
По всем вопросам пишите личное сообщение пользователю M0p94ok.
20:18
219
Нет комментариев. Ваш будет первым!