Поиск

2022 Peter Phippen - Into the Ancient {Projekt Archive} [24-96]

2022 Peter Phippen - Into the Ancient {Projekt Archive} [24-96]
Стили:
Дата издания диска:
7 января 2022
Носитель:
WEB
Формат:
PCM
Тип рипа:
tracks
Контейнер:
FLAC (*.flac)
Количество каналов:
2.0
Разрядность/ЧД:
24/96
Битрейт аудио:
lossless
Время звучания:
00:57:48
Наличие сканов:
только обложка

Треклист:

01. Northern Lights  04:04
02. Blue Skies Eternal  04:40
03. The Old Ways  03:04
04. Spirit Guides  05:43
05. Taos Penumbra  05:23
06. Tears of Infinity  05:44
07. Timeless Sun  05:11
08. Room 33  03:57
09. Wolf Vellum  04:50
10. Into the Ancient  04:20
11. A Calling  02:30
12. Beyond the Veil  08:17

Лог проверки качества
foobar2000 1.4.2 / Dynamic Range Meter 1.1.1
log date: 2022-01-10 20:38:22

--------------------------------------------------------------------------------
Analyzed: Peter Phippen / Into the Ancient
--------------------------------------------------------------------------------

DR         Peak         RMS     Duration Track
--------------------------------------------------------------------------------
DR9       -0.99 dB   -15.22 dB      4:05 01-Northern Lights
DR7       -1.00 dB   -13.25 dB      4:40 02-Blue Skies Eternal
DR10      -1.00 dB   -16.53 dB      3:05 03-The Old Ways
DR9       -1.00 dB   -13.86 dB      5:44 04-Spirit Guides
DR7       -1.00 dB   -12.03 dB      5:24 05-Taos Penumbra
DR13      -1.00 dB   -18.63 dB      5:45 06-Tears of Infinity
DR9       -1.00 dB   -15.58 dB      5:11 07-Timeless Sun
DR7       -1.00 dB   -13.93 dB      3:57 08-Room 33
DR8       -1.01 dB   -14.66 dB      4:50 09-Wolf Vellum
DR7       -0.99 dB   -11.23 dB      4:20 10-Into the Ancient
DR6       -1.00 dB   -12.17 dB      2:30 11-A Calling
DR9       -1.00 dB   -15.69 dB      8:18 12-Beyond the Veil
--------------------------------------------------------------------------------

Number of tracks:  12
Official DR value: DR8

Samplerate:        96000 Hz
Channels:          2
Bits per sample:   24
Bitrate:           2076 kbps
Codec:             FLAC
================================================================================
По всем вопросам пишите личное сообщение пользователю M0p94ok.
20:48
253
Нет комментариев. Ваш будет первым!