Вы используете незарегистрированную версию компонента "Вкладки"!

Поиск

1961 Stanley Turrentine With The Three Sounds - Blue Hour (2021) {Music Manager} [24-48]

1961 Stanley Turrentine With The Three Sounds - Blue Hour (2021) {Music Manager} [24-48]
Дата записи диска:
16 декабря 1960
Место записи:
Van Gelder Recording Studio, Englewood Cliffs, New Jersey, USA
Носитель:
WEB
Формат:
PCM
Тип рипа:
tracks
Контейнер:
FLAC (*.flac)
Количество каналов:
2.0
Разрядность/ЧД:
24/48
Битрейт аудио:
lossless
Время звучания:
00:37:41
Наличие сканов:
только обложка
Лог проверки качества
foobar2000 1.4.3 / Dynamic Range Meter 1.1.1
log date: 2021-07-18 20:28:05

--------------------------------------------------------------------------------
Analyzed: Stanley Turrentine / Blue Hour
--------------------------------------------------------------------------------

DR         Peak         RMS     Duration Track
--------------------------------------------------------------------------------
DR14      -0.05 dB   -18.29 dB      7:06 01-I Want a Little Girl
DR14      -0.04 dB   -18.32 dB      5:23 02-Gee Baby Ain't I Good to You
DR14      -0.03 dB   -17.04 dB      6:27 03-Blue Riff
DR15      -0.09 dB   -19.90 dB      8:50 04-Since I Fell for You
DR15      -0.06 dB   -19.11 dB      9:58 05-Willow Weep for Me
--------------------------------------------------------------------------------

Number of tracks:  5
Official DR value: DR14

Samplerate:        48000 Hz
Channels:          2
Bits per sample:   24
Bitrate:           1090 kbps
Codec:             FLAC
================================================================================
Any questions - support@pro-jazz.com. Есть вопросы - support@pro-jazz.com
16:34
61
Нет комментариев. Ваш будет первым!