Вы используете незарегистрированную версию компонента "Вкладки"!

Поиск

2016 Simone Kopmajer - It Don't Mean A Thing {Venus VHGD-183} [DSD64 ISO]

2016 Simone Kopmajer - It Don't Mean A Thing {Venus VHGD-183} [DSD64 ISO]
Стили:
Дата записи диска:
7 апреля 2012
Место записи:
Heidi's Jazz Club
Дата издания диска:
16 ноября 2016
Издатель (лейбл):
Номер по каталогу:
VHGD-183
Носитель:
SACD
Формат:
DSD
Тип рипа:
image
Контейнер:
ISO (*.iso)
Количество каналов:
2.0
Разрядность/ЧД:
64 (2,8 MHz/1 Bit)
Битрейт аудио:
lossless
Время звучания:
01:05:30
Наличие сканов:
да
Лог проверки качества
foobar2000 1.6.4 / Dynamic Range Meter 1.1.1
log date: 2021-07-16 23:16:10

--------------------------------------------------------------------------------
Analyzed: SIMONE KOPMAJER / It Don't Mean A Thing
--------------------------------------------------------------------------------

DR         Peak         RMS     Duration Track
--------------------------------------------------------------------------------
DR8       -3.84 dB   -13.17 dB      5:13 01-Tea For Two
DR6       -3.76 dB   -12.75 dB      3:50 02-It Don't Mean A Thing
DR7       -4.40 dB   -12.73 dB      9:24 03-Besame Mucho
DR7       -4.02 dB   -12.83 dB      5:25 04-Shoes
DR7       -3.96 dB   -12.63 dB      5:19 05-Love Will Keep Us Alive
DR7       -3.94 dB   -12.33 dB      3:33 06-Lucky Mojo
DR7       -4.77 dB   -14.40 dB      3:41 07-How Do You Keep The Music Playing
DR8       -3.92 dB   -13.04 dB      5:59 08-What A Difference A Day Made
DR7       -4.04 dB   -13.55 dB      4:10 09-You'll Have To Swing It
DR7       -4.03 dB   -13.08 dB      4:44 10-Imagine
DR6       -4.07 dB   -11.54 dB      8:13 11-Caravan
DR8       -3.79 dB   -13.19 dB      5:59 12-Kiss
--------------------------------------------------------------------------------

Number of tracks:  12
Official DR value: DR7

Samplerate:        2822400 Hz / PCM Samplerate: 88200 Hz
Channels:          2
Bits per sample:   1
Bitrate:           5645 kbps
Codec:             DSD64
================================================================================
Any questions - support@pro-jazz.com. Есть вопросы - support@pro-jazz.com
11:53
41
Нет комментариев. Ваш будет первым!